<?xml version="1.0" standalone="no"?>
<!DOCTYPE svg PUBLIC "-//W3C//DTD SVG 1.1//EN" "http://www.w3.org/Graphics/SVG/1.1/DTD/svg11.dtd" >
<svg xmlns="http://www.w3.org/2000/svg">
<metadata>Generated by IcoMoon</metadata>
<defs>
<font id="icomoon" horiz-adv-x="1024">
<font-face units-per-em="1024" ascent="960" descent="-64" />
<missing-glyph horiz-adv-x="1024" />
<glyph unicode="&#x20;" horiz-adv-x="512" d="" />
<glyph unicode="&#xe000;" glyph-name="uniE000" horiz-adv-x="878" d="M585.144 448q0 60.572-42.856 103.428t-103.428 42.856-103.428-42.856-42.856-103.428 42.856-103.428 103.428-42.856 103.428 42.856 42.856 103.428zM877.714 510.286v-126.858q0-6.856-4.572-13.144t-11.428-7.428l-105.714-16q-10.856-30.856-22.286-52 20-28.572 61.144-78.856 5.714-6.856 5.714-14.286t-5.144-13.144q-15.428-21.144-56.572-61.714t-53.714-40.572q-6.856 0-14.856 5.144l-78.856 61.714q-25.144-13.144-52-21.714-9.144-77.714-16.572-106.286-4-16-20.572-16h-126.856q-8 0-14 4.856t-6.572 12.286l-16 105.144q-28 9.144-51.428 21.144l-80.57-61.144q-5.714-5.144-14.286-5.144-8 0-14.286 6.286-72 65.144-94.286 96-4 5.714-4 13.144 0 6.856 4.57 13.144 8.57 12 29.144 38t30.856 40.286q-15.43 28.572-23.43 56.572l-104.57 15.428q-7.43 1.144-12 7.144t-4.57 13.428v126.856q0 6.858 4.57 13.144t10.856 7.428l106.286 16q8 26.286 22.286 52.572-22.856 32.572-61.144 78.856-5.714 6.858-5.714 13.714 0 5.714 5.144 13.142 14.856 20.572 56.286 61.428t54 40.858q7.43 0 14.856-5.714l78.856-61.144q25.144 13.144 52 21.714 9.144 77.714 16.572 106.286 4 16 20.572 16h126.856q8 0 14-4.856t6.572-12.286l16-105.144q28-9.144 51.428-21.144l81.144 61.144q5.144 5.144 13.714 5.144 7.428 0 14.286-5.714 73.714-68 94.286-97.144 4-4.57 4-12.57 0-6.858-4.572-13.144-8.572-12-29.144-38t-30.856-40.286q14.856-28.57 23.428-56l104.572-16q7.428-1.142 12-7.142t4.572-13.428z" />
<glyph unicode="&#xe001;" glyph-name="uniE001" horiz-adv-x="952" d="M365.714 82.286q0-30.286-21.428-51.714t-51.714-21.428-51.714 21.428-21.43 51.714 21.43 51.714 51.714 21.428 51.714-21.428 21.428-51.714zM877.714 82.286q0-30.286-21.428-51.714t-51.714-21.428-51.714 21.428-21.428 51.714 21.428 51.714 51.714 21.428 51.714-21.428 21.428-51.714zM950.856 704v-292.572q0-13.714-9.144-24.286t-23.428-12.286l-596.572-69.714q0.572-4 2.572-12.286t3.428-15.144 1.428-12.572q0-9.144-13.714-36.572h525.714q14.856 0 25.714-10.856t10.856-25.714-10.856-25.714-25.714-10.856h-585.144q-14.856 0-25.714 10.856t-10.856 25.714q0 8 6.286 22.572t16.856 34 11.714 21.714l-101.144 470.286h-116.57q-14.856 0-25.714 10.856t-10.856 25.714 10.856 25.714 25.714 10.856h146.286q9.144 0 16.286-3.714t11.43-8.856 7.43-14 4.286-15.144 3.144-16.856 2.57-14.57h686.286q14.856 0 25.714-10.858t10.856-25.714z" />
<glyph unicode="&#xe002;" glyph-name="uniE002" horiz-adv-x="806" d="M804.572 157.144q0-68.572-41.714-108.286t-110.856-39.714h-499.428q-69.144 0-110.856 39.714t-41.714 108.286q0 30.286 2 59.144t8 62.286 15.144 62 24.57 55.714 35.43 46.286 48.856 30.572 63.714 11.428q5.144 0 24-12.286t42.57-27.43 61.714-27.428 76.286-12.286 76.286 12.286 61.714 27.428 42.572 27.428 24 12.286q34.856 0 63.714-11.428t48.856-30.57 35.428-46.286 24.572-55.714 15.144-62 8-62.286 2-59.144zM621.714 667.428q0-90.856-64.286-155.144t-155.144-64.286-155.144 64.286-64.286 155.142 64.286 155.144 155.144 64.286 155.144-64.286 64.286-155.144z" />
<glyph unicode="&#xe003;" glyph-name="uniE003" horiz-adv-x="878" d="M584.572 411.428h180.572q-0.572 1.714-1.428 4.572t-1.428 4.572l-121.144 283.428h-404.572l-121.144-283.428q-0.57-1.144-1.43-4.572t-1.43-4.572h180.57l54.286-109.714h182.856zM877.714 394.286v-275.428q0-14.856-10.856-25.714t-25.714-10.856h-804.572q-14.856 0-25.714 10.856t-10.856 25.714v275.428q0 35.428 14.286 70.286l136 315.43q5.714 14.286 20.856 24t30 9.714h475.428q14.856 0 30-9.714t20.856-24l136-315.43q14.286-34.858 14.286-70.286z" />
<glyph unicode="&#xe004;" glyph-name="uniE004" horiz-adv-x="952" d="M365.714 137.144q0-2.286 0.572-11.428t0.286-15.144-1.714-13.428-5.714-11.144-11.714-3.714h-182.856q-68 0-116.286 48.286t-48.286 116.286v402.286q0 68 48.286 116.286t116.286 48.286h182.856q7.428 0 12.858-5.428t5.428-12.856q0-2.286 0.572-11.428t0.286-15.144-1.714-13.428-5.714-11.144-11.714-3.714h-182.856q-37.714 0-64.57-26.856t-26.856-64.57v-402.286q0-37.714 26.856-64.572t64.57-26.856h178.286t6.572-0.572 6.572-1.714 4.572-3.144 4-5.144 1.142-7.714zM896 448q0-14.856-10.856-25.714l-310.856-310.856q-10.856-10.856-25.714-10.856t-25.714 10.856-10.856 25.714v164.572h-256q-14.856 0-25.714 10.856t-10.856 25.714v219.428q0 14.856 10.856 25.714t25.714 10.856h256v164.572q0 14.856 10.856 25.714t25.714 10.858 25.714-10.858l310.856-310.856q10.856-10.856 10.856-25.714z" />
<glyph unicode="&#xe005;" glyph-name="uniE005" d="M512 740.572q-116.572 0-218-39.714t-161.144-107.144-59.714-145.714q0-64 40.856-122t115.144-100.286l49.714-28.572-15.428-54.856q-13.714-52-40-98.286 86.856 36 157.144 97.714l24.572 21.714 32.572-3.428q39.428-4.572 74.286-4.572 116.57 0 218 39.714t161.144 107.144 59.714 145.714-59.714 145.714-161.144 107.144-218 39.714zM1024 448q0-99.428-68.572-183.714t-186.286-133.144-257.144-48.856q-40 0-82.856 4.572-113.144-100-262.858-138.286-28-8-65.144-12.572h-2.856q-8.57 0-15.43 6t-9.144 15.714v0.572q-1.714 2.286-0.286 6.856t1.144 5.714 2.57 5.428l3.43 5.144t4 4.856 4.57 5.144q4 4.572 17.714 19.714t19.714 21.714 17.714 22.572 18.57 29.144 15.43 33.714 14.856 43.428q-89.714 50.856-141.43 125.714t-51.714 160.572q0 99.428 68.57 183.714t186.286 133.142 257.142 48.858 257.142-48.858 186.286-133.142 68.572-183.714z" />
<glyph unicode="&#xe006;" glyph-name="uniE006" horiz-adv-x="732" d="M585.144 283.428v-36.572q0-8-5.144-13.144t-13.144-5.144h-402.286q-8 0-13.144 5.144t-5.144 13.144v36.572q0 8 5.144 13.144t13.144 5.144h402.286q8 0 13.144-5.144t5.144-13.144zM585.144 429.714v-36.572q0-8-5.144-13.144t-13.144-5.144h-402.286q-8 0-13.144 5.144t-5.144 13.144v36.572q0 8 5.144 13.144t13.144 5.142h402.286q8 0 13.144-5.142t5.144-13.144zM73.144 82.286h585.144v438.858h-237.714q-22.858 0-38.858 16t-16 38.856v237.714h-292.572v-731.428zM438.858 594.286h170.858l-170.856 170.856v-170.856zM731.428 521.144v-457.144q0-22.856-16-38.856t-38.856-16h-621.714q-22.856 0-38.856 16t-16 38.856v768q0 22.856 16 38.856t38.856 16h310.858q22.858 0 50.286-11.428t43.428-27.428l233.144-233.144q16-16 27.428-43.428t11.428-50.286z" />
<glyph unicode="&#xe007;" glyph-name="uniE007" horiz-adv-x="1098" d="M365.714 630.856q0-45.714-32-77.714t-77.714-32-77.714 32-32 77.714 32 77.714 77.714 32 77.714-32 32-77.714zM950.856 411.428v-256h-804.572v109.714l182.856 182.856 91.428-91.428 292.572 292.572zM1005.714 813.714h-914.286q-7.43 0-12.856-5.428t-5.43-12.856v-694.856q0-7.428 5.43-12.856t12.856-5.428h914.286q7.428 0 12.856 5.428t5.428 12.856v694.856q0 7.428-5.428 12.856t-12.856 5.428zM1097.144 795.428v-694.856q0-37.714-26.856-64.572t-64.572-26.856h-914.286q-37.714 0-64.57 26.856t-26.856 64.572v694.856q0 37.714 26.856 64.572t64.57 26.856h914.286q37.714 0 64.572-26.856t26.856-64.572z" />
<glyph unicode="&#xe008;" glyph-name="uniE008" horiz-adv-x="878" d="M585.144 173.714v36.572q0 8-5.144 13.144t-13.144 5.144h-54.856v274.286q0 8-5.142 13.142t-13.142 5.142h-182.856q-8 0-13.144-5.142t-5.142-13.144v-36.572q0-8 5.142-13.144t13.144-5.142h54.856v-219.43h-54.856q-8 0-13.144-5.144t-5.142-13.144v-36.572q0-8 5.142-13.144t13.144-5.144h256q8 0 13.144 5.144t5.144 13.144zM512 612.572v109.714q0 8-5.142 13.142t-13.142 5.144h-109.714q-8 0-13.142-5.144t-5.142-13.142v-109.714q0-8 5.142-13.144t13.144-5.142h109.714q8 0 13.142 5.142t5.144 13.144zM877.714 448q0-119.428-58.856-220.286t-159.714-159.714-220.286-58.856-220.286 58.856-159.714 159.714-58.856 220.286 58.856 220.286 159.714 159.714 220.286 58.856 220.286-58.856 159.714-159.714 58.856-220.286z" />
<glyph unicode="&#xe009;" glyph-name="uniE009" horiz-adv-x="878" d="M733.714 540.572q0 16-10.286 26.286l-52 51.43q-10.856 10.856-25.714 10.856t-25.714-10.856l-233.144-232.572-129.144 129.144q-10.856 10.856-25.714 10.856t-25.714-10.856l-52-51.428q-10.286-10.286-10.286-26.286 0-15.428 10.286-25.714l206.856-206.856q10.856-10.856 25.714-10.856 15.428 0 26.286 10.856l310.286 310.286q10.286 10.286 10.286 25.714zM877.714 448q0-119.428-58.856-220.286t-159.714-159.714-220.286-58.856-220.286 58.856-159.714 159.714-58.856 220.286 58.856 220.286 159.714 159.714 220.286 58.856 220.286-58.856 159.714-159.714 58.856-220.286z" />
<glyph unicode="&#xe00a;" glyph-name="uniE00A" horiz-adv-x="878" d="M656.572 318.856q0 14.856-10.856 25.714l-103.428 103.428 103.428 103.428q10.856 10.856 10.856 25.714 0 15.43-10.856 26.286l-51.428 51.428q-10.856 10.856-26.286 10.856-14.856 0-25.714-10.856l-103.428-103.428-103.428 103.428q-10.856 10.856-25.714 10.856-15.428 0-26.286-10.856l-51.43-51.428q-10.856-10.856-10.856-26.286 0-14.856 10.856-25.714l103.43-103.428-103.43-103.428q-10.856-10.856-10.856-25.714 0-15.428 10.856-26.286l51.43-51.428q10.856-10.856 26.286-10.856 14.858 0 25.714 10.856l103.428 103.428 103.428-103.428q10.856-10.856 25.714-10.856 15.428 0 26.286 10.856l51.428 51.428q10.856 10.856 10.856 26.286zM877.714 448q0-119.428-58.856-220.286t-159.714-159.714-220.286-58.856-220.286 58.856-159.714 159.714-58.856 220.286 58.856 220.286 159.714 159.714 220.286 58.856 220.286-58.856 159.714-159.714 58.856-220.286z" />
<glyph unicode="&#xe00b;" glyph-name="uniE00B" horiz-adv-x="878" d="M438.858 886.856q119.43 0 220.286-58.856t159.714-159.714 58.856-220.286-58.856-220.286-159.714-159.714-220.286-58.856-220.286 58.856-159.714 159.714-58.856 220.286 58.856 220.286 159.714 159.714 220.286 58.856zM512 174.286v108.572q0 8-5.142 13.428t-12.572 5.428h-109.714q-7.428 0-13.144-5.714t-5.714-13.144v-108.572q0-7.428 5.714-13.144t13.144-5.714h109.714q7.428 0 12.572 5.428t5.142 13.428zM510.858 370.856l10.286 354.856q0 6.858-5.714 10.286-5.714 4.572-13.714 4.572h-125.714q-8 0-13.714-4.572-5.714-3.428-5.714-10.286l9.714-354.856q0-5.714 5.714-10t13.714-4.286h105.714q8 0 13.428 4.286t6 10z" />
<glyph unicode="&#xe00c;" glyph-name="uniE00C" horiz-adv-x="952" d="M658.286 484.572q0 105.714-75.144 180.856t-180.856 75.144-180.856-75.144-75.144-180.856 75.144-180.856 180.856-75.144 180.856 75.144 75.144 180.856zM950.856 9.144q0-29.714-21.714-51.428t-51.428-21.714q-30.856 0-51.428 21.714l-196 195.428q-102.286-70.856-228-70.856-81.714 0-156.286 31.714t-128.57 85.714-85.714 128.572-31.714 156.286 31.714 156.286 85.714 128.572 128.57 85.714 156.286 31.714 156.286-31.714 128.572-85.714 85.714-128.572 31.714-156.286q0-125.714-70.856-228l196-196q21.144-21.144 21.144-51.428z" />
<glyph unicode="&#xe00d;" glyph-name="uniE00D" d="M1024 554.286v-453.714q0-37.714-26.856-64.572t-64.572-26.856h-841.144q-37.714 0-64.57 26.856t-26.856 64.572v453.714q25.144-28 57.714-49.714 206.858-140.572 284-197.144 32.57-24 52.858-37.428t54-27.428 62.856-14h1.144q29.144 0 62.856 14t54 27.428 52.856 37.428q97.144 70.286 284.572 197.144 32.572 22.286 57.144 49.714zM1024 722.286q0-45.144-28-86.286t-69.714-70.286q-214.856-149.142-267.428-185.714-5.714-4-24.286-17.428t-30.856-21.714-29.714-18.572-32.856-15.428-28.572-5.144h-1.142q-13.142 0-28.572 5.144t-32.858 15.428-29.714 18.572-30.858 21.714-24.286 17.428q-52 36.572-149.714 104.286t-117.144 81.43q-35.43 24-66.856 66t-31.428 78q0 44.572 23.714 74.286t67.714 29.714h841.144q37.144 0 64.286-26.856t27.144-64.572z" />
<glyph unicode="&#xe00e;" glyph-name="uniE00E" horiz-adv-x="952" d="M804.572 393.144v-274.286q0-14.856-10.856-25.714t-25.714-10.856h-219.428v219.428h-146.286v-219.428h-219.43q-14.856 0-25.714 10.856t-10.856 25.714v274.286q0 0.572 0.286 1.714t0.286 1.714l328.572 270.856 328.57-270.856q0.572-1.144 0.572-3.428zM932 432.572l-35.428-42.286q-4.572-5.144-12-6.286h-1.714q-7.428 0-12 4l-395.428 329.714-395.428-329.714q-6.856-4.572-13.714-4-7.43 1.144-12 6.286l-35.43 42.286q-4.57 5.714-4 13.428t6.286 12.286l410.856 342.286q18.286 14.856 43.428 14.856t43.428-14.856l139.428-116.572v111.428q0 8 5.144 13.144t13.144 5.144h109.714q8 0 13.144-5.144t5.144-13.144v-233.144l125.144-104q5.714-4.572 6.286-12.286t-4-13.428z" />
<glyph unicode="&#xe00f;" glyph-name="uniE00F" horiz-adv-x="878" d="M146.286 192q0 14.856-10.856 25.714t-25.714 10.856-25.714-10.856-10.856-25.714 10.856-25.714 25.714-10.856 25.714 10.856 10.856 25.714zM804.572 521.144q0 29.142-22.286 51.142t-50.856 22h-201.144q0 33.144 27.428 91.144t27.428 91.714q0 56-18.286 82.856t-73.144 26.856q-14.856-14.856-21.714-48.572t-17.428-71.714-34-62.572q-12.572-13.144-44-52-2.286-2.856-13.142-17.144t-18-23.428-19.714-24.286-22.858-25.144-22-20.286-22.856-15.428-20.286-5.144h-18.286v-365.714h18.286q7.43 0 18-1.714t18.858-3.714 21.714-6.286 20-6.572 20.286-7.144 16.572-6q120.572-41.714 195.428-41.714h69.144q109.714 0 109.714 95.428 0 14.856-2.856 32 17.144 9.144 27.144 30t10 42-10.286 39.428q30.286 28.572 30.286 68 0 14.286-5.714 31.714t-14.286 27.144q18.286 0.572 30.572 26.856t12.286 46.286zM877.714 521.714q0-50.856-28-93.142 5.144-18.856 5.144-39.428 0-44-21.714-82.286 1.714-12 1.714-24.572 0-57.714-34.286-101.714 0.572-79.428-48.572-125.428t-129.714-46h-73.714q-54.856 0-108.286 12.856t-123.714 37.428q-66.286 22.856-78.856 22.856h-164.57q-30.286 0-51.714 21.428t-21.428 51.714v365.714q0 30.286 21.428 51.714t51.714 21.428h156.57q20.57 13.714 78.286 88.572 33.144 42.856 61.144 73.144 13.714 14.286 20.286 48.856t17.428 72.286 35.43 61.714q22.286 21.144 51.428 21.144 48 0 86.286-18.572t58.286-58 20-106.286q0-53.142-27.428-109.714h100.572q59.428 0 102.856-43.428t43.428-102.286z" />
<glyph unicode="&#xe010;" glyph-name="uniE010" horiz-adv-x="878" d="M512 173.714v109.714q0 7.428-5.428 12.856t-12.856 5.428h-109.714q-7.428 0-12.858-5.428t-5.428-12.856v-109.714q0-7.428 5.428-12.856t12.856-5.428h109.714q7.428 0 12.858 5.428t5.428 12.856zM658.286 557.714q0 55.43-33.428 98.286t-82.572 63.714-103.428 20.858-103.428-20.858-82.57-63.714-33.43-98.286v-13.714t0.57-6.572 1.714-6.572 3.144-4.572 5.144-4 7.714-1.142h109.714q8 0 13.144 5.142t5.142 13.144q0 6.858 6.286 15.428 10.856 17.714 28.856 28.572t38 10.856q22.286 0 47.428-12.286t25.144-32.858q0-18.856-15.144-33.144t-36.286-25.144-42.57-23.714-36.572-36.286-15.144-56v-13.714t0.572-6.572 1.714-6.572 3.142-4.572 5.142-4 7.714-1.144h109.714q9.714 0 13.714 6t4.572 14 7.714 18.856 21.428 18.286q34.286 18.856 40 22.286 35.428 25.144 56.286 61.714t20.856 78.286zM877.714 448q0-119.428-58.856-220.286t-159.714-159.714-220.286-58.856-220.286 58.856-159.714 159.714-58.856 220.286 58.856 220.286 159.714 159.714 220.286 58.856 220.286-58.856 159.714-159.714 58.856-220.286z" />
<glyph unicode="&#xe011;" glyph-name="uniE011" d="M219.43 283.428v-36.572q0-7.428-5.43-12.856t-12.856-5.428h-36.57q-7.43 0-12.856 5.428t-5.43 12.856v36.572q0 7.428 5.43 12.856t12.856 5.428h36.57q7.43 0 12.856-5.428t5.43-12.856zM219.43 429.714v-36.572q0-7.428-5.43-12.856t-12.856-5.428h-36.57q-7.43 0-12.856 5.428t-5.43 12.856v36.572q0 7.428 5.43 12.856t12.856 5.428h36.57q7.43 0 12.856-5.428t5.43-12.856zM219.43 576v-36.572q0-7.428-5.43-12.856t-12.856-5.428h-36.57q-7.43 0-12.856 5.428t-5.43 12.856v36.572q0 7.428 5.43 12.856t12.856 5.428h36.57q7.43 0 12.856-5.428t5.43-12.856zM877.714 283.428v-36.572q0-7.428-5.428-12.856t-12.856-5.428h-548.572q-7.428 0-12.856 5.428t-5.428 12.856v36.572q0 7.428 5.428 12.856t12.856 5.428h548.572q7.428 0 12.856-5.428t5.428-12.856zM877.714 429.714v-36.572q0-7.428-5.428-12.856t-12.856-5.428h-548.572q-7.428 0-12.856 5.428t-5.428 12.856v36.572q0 7.428 5.428 12.856t12.856 5.428h548.572q7.428 0 12.856-5.428t5.428-12.856zM877.714 576v-36.572q0-7.428-5.428-12.856t-12.856-5.428h-548.572q-7.428 0-12.856 5.428t-5.428 12.856v36.572q0 7.428 5.428 12.856t12.856 5.428h548.572q7.428 0 12.856-5.428t5.428-12.856zM950.856 173.714v475.428q0 7.428-5.428 12.856t-12.856 5.428h-841.144q-7.43 0-12.856-5.428t-5.43-12.856v-475.428q0-7.428 5.43-12.856t12.856-5.428h841.144q7.428 0 12.856 5.428t5.428 12.856zM1024 795.428v-621.714q0-37.714-26.856-64.572t-64.572-26.856h-841.144q-37.714 0-64.57 26.856t-26.856 64.572v621.714q0 37.714 26.856 64.572t64.57 26.856h841.144q37.714 0 64.572-26.856t26.856-64.572z" />
<glyph unicode="&#xe012;" glyph-name="uniE012" d="M146.286 137.144v-109.714q0-8-5.144-13.144t-13.144-5.144h-109.714q-8 0-13.144 5.144t-5.142 13.144v109.714q0 8 5.142 13.144t13.144 5.144h109.714q8 0 13.144-5.144t5.144-13.144zM365.714 210.286v-182.856q0-8-5.142-13.144t-13.144-5.144h-109.714q-8 0-13.144 5.144t-5.144 13.144v182.856q0 8 5.144 13.144t13.144 5.144h109.714q8 0 13.144-5.144t5.142-13.144zM585.144 356.572v-329.142q0-8-5.144-13.144t-13.144-5.144h-109.714q-8 0-13.142 5.144t-5.142 13.144v329.144q0 8 5.142 13.144t13.144 5.144h109.714q8 0 13.144-5.144t5.144-13.144zM804.572 576v-548.572q0-8-5.144-13.144t-13.144-5.144h-109.714q-8 0-13.144 5.144t-5.144 13.144v548.572q0 8 5.144 13.144t13.144 5.144h109.714q8 0 13.144-5.144t5.144-13.144zM1024 868.572v-841.144q0-8-5.144-13.144t-13.144-5.144h-109.714q-8 0-13.144 5.144t-5.144 13.144v841.144q0 8 5.144 13.144t13.144 5.142h109.714q8 0 13.144-5.142t5.144-13.144z" />
<glyph unicode="&#xe013;" glyph-name="uniE013" horiz-adv-x="658" d="M614.286 539.428q0-7.428-5.714-13.144l-266.286-266.286q-5.714-5.714-13.142-5.714t-13.144 5.714l-266.286 266.286q-5.714 5.714-5.714 13.142t5.714 13.144l28.57 28.572q5.714 5.714 13.144 5.714t13.144-5.714l224.57-224.572 224.57 224.572q5.714 5.714 13.144 5.714t13.144-5.714l28.572-28.572q5.714-5.714 5.714-13.144z" />
<glyph unicode="&#xe025;" glyph-name="uniE025" d="M853.344 960h-682.66c-93.872 0-170.684-76.814-170.684-170.688v-682.626c0-93.938 76.812-170.686 170.684-170.686l682.66 0.002c93.876 0 170.656 76.746 170.656 170.688v682.622c0 93.874-76.782 170.688-170.656 170.688zM870.592 448h-166.592v-448h-192v448h-92.526v146.564h92.526v95.186c0 129.342 55.792 206.25 207.87 206.25h175.244v-158.57h-143.13c-42.482 0.070-47.752-22.152-47.752-63.512l-0.232-79.354h192l-25.408-146.564z" />
<glyph unicode="&#xe026;" glyph-name="uniE026" d="M853.342 960h-682.656c-93.874 0-170.686-76.81-170.686-170.69v-682.622c0-93.938 76.812-170.688 170.686-170.688h682.656c93.876 0 170.658 76.75 170.658 170.69v682.62c0 93.88-76.782 170.69-170.658 170.69zM838.052 618.166c0.328-7.342 0.49-14.728 0.49-22.148 0-226.214-169.216-487.068-478.658-487.068-95.004 0-183.434 28.348-257.886 76.918 13.16-1.588 26.552-2.394 40.13-2.394 78.822 0 151.358 27.37 208.934 73.282-73.616 1.38-135.744 50.876-157.154 118.882 10.274-2 20.812-3.074 31.652-3.074 15.344 0 30.206 2.096 44.32 6.008-76.96 15.732-134.95 84.916-134.95 167.856 0 0.722 0 1.438 0.016 2.152 22.68-12.82 48.624-20.52 76.2-21.41-45.142 30.698-74.842 83.092-74.842 142.488 0 31.37 8.294 60.778 22.778 86.058 82.974-103.57 206.936-171.72 346.754-178.862-2.87 12.532-4.358 25.596-4.358 39.014 0 94.538 75.326 171.18 168.23 171.18 48.39 0 92.118-20.786 122.802-54.058 38.32 7.676 74.324 21.92 106.832 41.542-12.562-39.976-39.234-73.522-73.966-94.71 34.026 4.138 66.452 13.34 96.62 26.954-22.546-34.324-51.070-64.476-83.944-88.61z" />
<glyph unicode="&#xe02a;" glyph-name="uniE02A" d="M789.534 896c0 0-200.956 0-267.94 0-120.122 0-233.17-91.006-233.17-196.422 0-107.726 81.882-194.666 204.088-194.666 8.498 0 16.756 0.17 24.84 0.752-7.928-15.186-13.6-32.288-13.6-50.042 0-29.938 16.104-54.21 36.468-74.024-15.386 0-30.242-0.448-46.452-0.448-148.782 0.002-263.3-94.76-263.3-193.022 0-96.778 125.542-157.312 274.334-157.312 169.624 0 263.306 96.244 263.306 193.028 0 77.602-22.896 124.072-93.686 174.134-24.216 17.142-70.532 58.836-70.532 83.344 0 28.72 8.196 42.868 51.428 76.646 44.312 34.624 75.674 83.302 75.674 139.916 0 67.406-30.022 133.098-86.374 154.772h84.956l59.96 43.344zM695.948 240.542c2.126-8.972 3.284-18.208 3.284-27.628 0-78.2-50.39-139.31-194.974-139.31-102.842 0-177.116 65.104-177.116 143.3 0 76.642 92.126 140.444 194.964 139.332 24-0.254 46.368-4.116 66.668-10.69 55.828-38.828 95.876-60.76 107.174-105.004zM531.286 532.224c-69.038 2.064-134.636 77.226-146.552 167.86-11.916 90.666 34.37 160.042 103.388 157.99 69.008-2.074 134.636-74.814 146.558-165.458 11.906-90.66-34.39-162.458-103.394-160.392z" />
<glyph unicode="&#xe094;" glyph-name="arrow-left" d="M426.667 768q17.667 0 30.167-12.5t12.5-30.167q0-18-12.667-30.333l-225.667-225.667h665q17.667 0 30.167-12.5t12.5-30.167-12.5-30.167-30.167-12.5h-665l225.667-225.667q12.667-12.333 12.667-30.333 0-17.667-12.5-30.167t-30.167-12.5q-18 0-30.333 12.333l-298.667 298.667q-12.333 13-12.333 30.333t12.333 30.333l298.667 298.667q12.667 12.333 30.333 12.333z" />
<glyph unicode="&#xe114;" glyph-name="plus" d="M512 853.334q17.667 0 30.167-12.5t12.5-30.167v-341.333h341.333q17.667 0 30.167-12.5t12.5-30.167-12.5-30.167-30.167-12.5h-341.333v-341.333q0-17.667-12.5-30.167t-30.167-12.5-30.167 12.5-12.5 30.167v341.333h-341.333q-17.667 0-30.167 12.5t-12.5 30.167 12.5 30.167 30.167 12.5h341.333v341.333q0 17.667 12.5 30.167t30.167 12.5z" />
<glyph unicode="&#xe602;" glyph-name="uniE602" d="M832 832h-640c-105.6 0-192-86.4-192-192v-384c0-105.6 86.4-192 192-192h640c105.6 0 192 86.4 192 192v384c0 105.6-86.4 192-192 192zM384 192v512l320-256-320-256z" />
<glyph unicode="&#xe603;" glyph-name="uniE603" d="M832 832h-640c-105.6 0-192-86.4-192-192v-384c0-105.6 86.4-192 192-192h640c105.6 0 192 86.4 192 192v384c0 105.6-86.4 192-192 192zM960 256c0-33.978-13.374-66.062-37.654-90.346-24.284-24.28-56.366-37.654-90.346-37.654h-640c-33.978 0-66.062 13.374-90.344 37.654-24.282 24.284-37.656 56.368-37.656 90.346v384c0 33.978 13.374 66.062 37.656 90.344s56.366 37.656 90.344 37.656h640c33.978 0 66.062-13.374 90.346-37.656s37.654-56.366 37.654-90.344v-384zM384 192l320 256-320 256z" />
<glyph unicode="&#xe627;" glyph-name="uniE627" d="M512 960c282.77 0 512-229.23 512-512 0-261.094-195.438-476.53-448-508.026v380.026h176l16 128h-192v64c0 35.346 28.654 64 64 64h128v128h-128c-106.040 0-192-85.96-192-192v-64h-96v-128h96v-380.026c-252.562 31.496-448 246.932-448 508.026 0 282.77 229.23 512 512 512z" />
<glyph unicode="&#xe628;" glyph-name="uniE628" d="M854 960h-684c-93.5 0-170-76.5-170-170v-684c0-93.5 76.5-170 170-170h684c93.5 0 170 76.5 170 170v684c0 93.5-76.5 170-170 170zM327.8 512h368.4c6.988-20.058 10.8-41.59 10.8-64 0-107.524-87.476-195-195-195s-195 87.476-195 195c0 22.41 3.812 43.942 10.8 64zM896 511.95v-383.95c0-35.2-28.8-64-64-64h-640c-35.2 0-64 28.8-64 64v384h100.108c-4.642-20.602-7.108-42.016-7.108-64 0-160.458 130.542-291 291-291s291 130.542 291 291c0 21.984-2.464 43.398-7.108 64l100.108-0.050zM896 736c0-17.6-14.4-32-32-32h-64c-17.6 0-32 14.4-32 32v64c0 17.6 14.4 32 32 32h64c17.6 0 32-14.4 32-32v-64z" />
<glyph unicode="&#xe629;" glyph-name="uniE629" d="M512 960c-282.77 0-512-229.23-512-512s229.23-512 512-512 512 229.23 512 512-229.23 512-512 512zM806.242 598.912c0.292-6.508 0.442-13.056 0.442-19.638 0-200.622-152.708-431.964-431.958-431.964-85.736 0-165.536 25.136-232.726 68.214 11.876-1.408 23.962-2.126 36.216-2.126 71.13 0 136.59 24.276 188.55 64.994-66.434 1.22-122.5 45.122-141.824 105.432 9.274-1.768 18.784-2.722 28.566-2.722 13.846 0 27.258 1.856 39.998 5.324-69.452 13.952-121.786 75.312-121.786 148.868 0 0.64 0 1.278 0.016 1.91 20.47-11.37 43.878-18.2 68.764-18.988-40.74 27.222-67.54 73.692-67.54 126.368 0 27.822 7.488 53.904 20.556 76.324 74.878-91.854 186.748-152.292 312.924-158.628-2.588 11.118-3.93 22.702-3.93 34.604 0 83.84 67.98 151.812 151.818 151.812 43.666 0 83.124-18.436 110.818-47.94 34.58 6.808 67.074 19.442 96.412 36.84-11.336-35.454-35.41-65.206-66.752-83.994 30.71 3.668 59.968 11.832 87.194 23.904-20.35-30.448-46.090-57.186-75.758-78.594z" />
<glyph unicode="&#xe62f;" glyph-name="uniE62F" d="M575.87-64h-191.87v512h-128v176.45l128 0.058-0.208 103.952c0 143.952 39.034 231.54 208.598 231.54h141.176v-176.484h-88.23c-66.032 0-69.206-24.656-69.206-70.684l-0.262-88.324h158.69l-18.704-176.45-139.854-0.058-0.13-512z" />
<glyph unicode="&#xe630;" glyph-name="uniE630" d="M1024 765.582c-37.676-16.708-78.164-28.002-120.66-33.080 43.372 26 76.686 67.17 92.372 116.23-40.596-24.078-85.556-41.56-133.41-50.98-38.32 40.83-92.922 66.34-153.346 66.34-116.022 0-210.088-94.058-210.088-210.078 0-16.466 1.858-32.5 5.44-47.878-174.6 8.764-329.402 92.4-433.018 219.506-18.084-31.028-28.446-67.116-28.446-105.618 0-72.888 37.088-137.192 93.46-174.866-34.438 1.092-66.832 10.542-95.154 26.278-0.020-0.876-0.020-1.756-0.020-2.642 0-101.788 72.418-186.696 168.522-206-17.626-4.8-36.188-7.372-55.348-7.372-13.538 0-26.698 1.32-39.528 3.772 26.736-83.46 104.32-144.206 196.252-145.896-71.9-56.35-162.486-89.934-260.916-89.934-16.958 0-33.68 0.994-50.116 2.94 92.972-59.61 203.402-94.394 322.042-94.394 386.422 0 597.736 320.124 597.736 597.744 0 9.108-0.206 18.168-0.61 27.18 41.056 29.62 76.672 66.62 104.836 108.748z" />
<glyph unicode="&#xe900;" glyph-name="icon-help" d="M512 960c-282.768 0-512-229.232-512-512s229.232-512 512-512c282.784 0 512 229.232 512 512s-229.216 512-512 512zM500.224 164.8c-21.904 0-38.88 17.664-38.88 38.88 0 19.792 16.976 37.472 38.88 37.472 20.496 0 37.472-17.664 37.472-37.472 0-21.216-16.976-38.88-37.472-38.88zM527.792 400.192v-90.48h-55.824v132.176c82.704 7.056 141.36 45.232 141.36 91.168 0 43.136-36.032 84.112-95.424 84.112-53.008 0-89.76-28.976-120.864-67.136l-36.032 36.064c37.44 46.624 88.352 81.264 159.712 81.264 89.792 0 148.464-57.264 148.464-129.36 0-62.896-58.688-120.128-141.392-137.808z" />
<glyph unicode="&#xe901;" glyph-name="icon-home" d="M512.992 960c-282.768 0-512-229.232-512-512s229.232-512 512-512c282.784 0 512 229.232 512 512s-229.216 512-512 512zM767.296 359.984l-58.672 58.672v-254.288h-156.496v117.36h-78.24v-117.36h-156.496v254.288l-58.672-58.672-58.672 58.672 312.944 312.96 312.976-312.96-58.672-58.672zM552.112 516.464c0-21.605-17.515-39.12-39.12-39.12s-39.12 17.515-39.12 39.12c0 21.605 17.515 39.12 39.12 39.12s39.12-17.515 39.12-39.12z" />
<glyph unicode="&#xe902;" glyph-name="icon-logout" d="M512 960c-282.768 0-512-229.232-512-512s229.232-512 512-512c282.784 0 512 229.232 512 512s-229.216 512-512 512zM487.344 219.52c-0.64-3.232-1.872-5.648-3.744-7.248-1.84-1.6-4.4-2.4-7.632-2.416h-119.056c-29.52 0-54.784 10.48-75.744 31.44-20.944 20.96-31.456 46.208-31.456 75.728v261.952c0 29.52 10.496 54.768 31.456 75.728 20.944 20.96 46.208 31.44 75.744 31.44h119.056c3.216 0 6.016-1.184 8.368-3.536 2.352-2.368 3.568-5.152 3.568-8.384 0-0.992 0.112-3.472 0.352-7.44 0.256-3.968 0.32-7.264 0.208-9.856s-0.496-5.52-1.12-8.752c-0.64-3.232-1.872-5.648-3.744-7.248-1.84-1.6-4.4-2.4-7.632-2.416h-119.056c-16.4 0-30.416-5.824-42.064-17.488-11.648-11.648-17.472-25.68-17.472-42.048v-261.968c0-16.384 5.808-30.4 17.472-42.048 11.648-11.648 25.664-17.488 42.064-17.488h116.080c0 0 1.408-0.128 4.256-0.368 2.848-0.256 4.288-0.624 4.288-1.12s0.976-1.184 2.96-2.032c1.984-0.864 2.848-1.984 2.624-3.36-0.256-1.376 0-3.056 0.752-5.024h0.032c0-0.992 0.112-3.472 0.352-7.44 0.256-3.968 0.32-7.264 0.208-9.856-0.112-2.608-0.496-5.52-1.12-8.752zM833.216 447.984c0-6.448-2.352-12.032-7.056-16.752l-202.448-202.416c-4.688-4.704-10.272-7.072-16.752-7.072-6.448 0-12.032 2.352-16.752 7.072-4.72 4.704-7.056 10.288-7.056 16.752v107.168h-166.72c-6.448 0-12.032 2.352-16.752 7.056-4.72 4.72-7.072 10.288-7.056 16.752v142.896c0 6.448 2.336 12.032 7.056 16.752s10.304 7.072 16.752 7.072h166.736v107.168c0 6.448 2.336 12.032 7.056 16.752s10.304 7.072 16.752 7.072c6.48-0.016 12.064-2.368 16.752-7.072l202.448-202.432c4.688-4.704 7.056-10.288 7.056-16.752v-0.016z" />
<glyph unicode="&#xe903;" glyph-name="icon-profile" d="M512 960c-282.768 0-512-229.232-512-512s229.232-512 512-512c282.784 0 512 229.232 512 512s-229.216 512-512 512zM221.008 230.048c0 83.76 108.432 153.040 249.44 164.576v34.272c-45.808 25.792-83.136 90.128-83.136 154.48 0 103.328 0 187.072 124.688 187.072 124.72 0 124.72-83.744 124.72-187.072 0-64.336-37.36-128.672-83.136-154.48v-34.272c141.008-11.52 249.408-80.816 249.408-164.576h-581.984z" />
<glyph unicode="&#xe904;" glyph-name="download2" d="M896 448h-160l-224-224-224 224h-160l-128-256v-64h1024v64l-128 256zM0 64h1024v-64h-1024v64zM576 640v256h-128v-256h-224l288-288 288 288h-224z" />
<glyph unicode="&#xe905;" glyph-name="menu" d="M839.68 512h-655.36c-28.262 0-30.72-22.886-30.72-51.2s2.458-51.2 30.72-51.2h655.36c28.262 0 30.72 22.886 30.72 51.2s-2.458 51.2-30.72 51.2zM839.68 307.2h-655.36c-28.262 0-30.72-22.886-30.72-51.2s2.458-51.2 30.72-51.2h655.36c28.262 0 30.72 22.886 30.72 51.2s-2.458 51.2-30.72 51.2zM184.32 614.4h655.36c28.262 0 30.72 22.886 30.72 51.2s-2.458 51.2-30.72 51.2h-655.36c-28.262 0-30.72-22.886-30.72-51.2s2.458-51.2 30.72-51.2z" />
<glyph unicode="&#xe906;" glyph-name="bell" d="M1025.5 160c0 288-256 224-256 448 0 18.56-1.788 34.42-5.048 47.928-16.83 113.018-92.156 203.72-189.772 231.36 0.866 3.948 1.32 8.032 1.32 12.21 0 33.278-28.8 60.502-64 60.502s-64-27.224-64-60.5c0-4.18 0.456-8.264 1.32-12.21-109.47-30.998-190.914-141.298-193.254-273.442-0.040-1.92-0.066-3.864-0.066-5.846 0-224.002-256-160.002-256-448.002 0-76.226 170.59-139.996 398.97-156.080 21.524-40.404 64.056-67.92 113.030-67.92s91.508 27.516 113.030 67.92c228.38 16.084 398.97 79.854 398.97 156.080 0 0.228-0.026 0.456-0.028 0.682l1.528-0.682zM826.246 105.904c-54.23-14.47-118.158-24.876-186.768-30.648-5.704 65.418-60.582 116.744-127.478 116.744s-121.774-51.326-127.478-116.744c-68.608 5.772-132.538 16.178-186.768 30.648-74.63 19.914-110.31 42.19-123.368 54.096 13.058 11.906 48.738 34.182 123.368 54.096 86.772 23.152 198.372 35.904 314.246 35.904s227.474-12.752 314.246-35.904c74.63-19.914 110.31-42.19 123.368-54.096-13.058-11.906-48.738-34.182-123.368-54.096z" />
<glyph unicode="&#xe907;" glyph-name="pencil" d="M864 960c88.364 0 160-71.634 160-160 0-36.020-11.91-69.258-32-96l-64-64-224 224 64 64c26.742 20.090 59.978 32 96 32zM64 224l-64-288 288 64 592 592-224 224-592-592zM715.578 596.422l-448-448-55.156 55.156 448 448 55.156-55.156z" />
<glyph unicode="&#xe908;" glyph-name="eye" d="M512 768c-223.318 0-416.882-130.042-512-320 95.118-189.958 288.682-320 512-320 223.312 0 416.876 130.042 512 320-95.116 189.958-288.688 320-512 320zM764.45 598.296c60.162-38.374 111.142-89.774 149.434-150.296-38.292-60.522-89.274-111.922-149.436-150.296-75.594-48.218-162.89-73.704-252.448-73.704-89.56 0-176.858 25.486-252.452 73.704-60.158 38.372-111.138 89.772-149.432 150.296 38.292 60.524 89.274 111.924 149.434 150.296 3.918 2.5 7.876 4.922 11.86 7.3-9.96-27.328-15.41-56.822-15.41-87.596 0-141.382 114.616-256 256-256 141.382 0 256 114.618 256 256 0 30.774-5.452 60.268-15.408 87.598 3.978-2.378 7.938-4.802 11.858-7.302v0zM512 544c0-53.020-42.98-96-96-96s-96 42.98-96 96 42.98 96 96 96 96-42.982 96-96z" />
<glyph unicode="&#xe909;" glyph-name="video-camera" d="M384 672c0 88.366 71.634 160 160 160s160-71.634 160-160c0-88.366-71.634-160-160-160s-160 71.634-160 160zM0 672c0 88.366 71.634 160 160 160s160-71.634 160-160c0-88.366-71.634-160-160-160s-160 71.634-160 160zM768 352v96c0 35.2-28.8 64-64 64h-640c-35.2 0-64-28.8-64-64v-320c0-35.2 28.8-64 64-64h640c35.2 0 64 28.8 64 64v96l256-160v448l-256-160zM640 192h-512v192h512v-192z" />
<glyph unicode="&#xe90a;" glyph-name="clipboard" d="M928 832h-288c0 70.692-57.306 128-128 128-70.692 0-128-57.308-128-128h-288c-17.672 0-32-14.328-32-32v-832c0-17.674 14.328-32 32-32h832c17.674 0 32 14.326 32 32v832c0 17.672-14.326 32-32 32zM512 896c35.346 0 64-28.654 64-64s-28.654-64-64-64c-35.346 0-64 28.654-64 64s28.654 64 64 64zM896 0h-768v768h128v-96c0-17.672 14.328-32 32-32h448c17.674 0 32 14.328 32 32v96h128v-768zM448 101.49l-205.254 237.254 58.508 58.51 146.746-114.744 274.742 242.744 58.514-58.508z" />
<glyph unicode="&#xe90b;" glyph-name="icon-questions" horiz-adv-x="857" d="M427.071 960c-235.374 0-427.071-191.697-427.071-427.071s191.697-427.071 427.071-427.071c21.839 0 46.104 2.427 67.943 4.853 60.664-38.825 106.768-101.915 126.18-174.711 0 0 84.929 60.664 80.076 266.919 0 0 0 0 0 2.427 14.559 12.133 29.118 26.692 43.678 41.251 9.706 9.706 7.28 24.265-2.427 33.972s-24.265 7.28-33.972-2.427c-67.943-75.223-165.005-118.9-264.493-123.754h-31.545c-201.403 7.28-363.981 174.711-363.981 378.54 0 208.682 169.858 378.54 378.54 378.54s378.54-169.858 378.54-378.54c0-14.559 9.706-24.265 24.265-24.265s24.265 9.706 24.265 24.265c2.427 235.374-191.697 427.071-427.071 427.071zM436.777 501.384c4.853 4.853 7.28 9.706 12.133 12.133s9.706 4.853 14.559 9.706c7.28 4.853 14.559 7.28 21.839 12.133s12.133 9.706 19.412 14.559 9.706 12.133 12.133 19.412c2.427 7.28 4.853 16.986 4.853 29.118 0 14.559-2.427 26.692-7.28 36.398s-12.133 19.412-19.412 26.692c-7.28 7.28-16.986 12.133-26.692 14.559s-19.412 4.853-31.545 4.853c-9.706 0-19.412 0-26.692-4.853-9.706-2.427-16.986-4.853-24.265-9.706s-14.559-9.706-21.839-16.986c-7.28-7.28-12.133-14.559-14.559-24.265l19.412-12.133c7.28 12.133 14.559 21.839 26.692 31.545 12.133 7.28 26.692 12.133 41.251 12.133 7.28 0 14.559 0 21.839-2.427s12.133-4.853 19.412-9.706c4.853-4.853 9.706-9.706 12.133-16.986s4.853-14.559 4.853-24.265c0-9.706-2.427-19.412-7.28-26.692s-9.706-12.133-14.559-19.412c-4.853-4.853-12.133-9.706-19.412-12.133s-12.133-7.28-19.412-9.706-21.839-16.986-26.692-26.692-9.706-26.692-9.706-46.104h24.265c0 9.706 0 19.412 2.427 26.692 7.28 2.427 9.706 7.28 12.133 12.133zM400.379 418.882h24.265v-46.104h-24.265v46.104z" />
<glyph unicode="&#xe90c;" glyph-name="bubbles3" horiz-adv-x="1152" d="M1088 58.834c0-45.5 26.028-84.908 64-104.184v-15.938c-10.626-1.454-21.472-2.224-32.5-2.224-68.008 0-129.348 28.528-172.722 74.264-26.222-6.982-54.002-10.752-82.778-10.752-159.058 0-288 114.616-288 256s128.942 256 288 256c159.058 0 288-114.616 288-256 0-55.348-19.764-106.592-53.356-148.466-6.824-14.824-10.644-31.312-10.644-48.7zM230.678 738.814c-66.214-53.798-102.678-122.984-102.678-194.814 0-40.298 11.188-79.378 33.252-116.15 22.752-37.92 56.982-72.586 98.988-100.252 30.356-19.992 50.78-51.948 56.176-87.894 1.8-11.984 2.928-24.088 3.37-36.124 7.47 6.194 14.75 12.846 21.88 19.976 24.154 24.152 56.78 37.49 90.502 37.49 5.368 0 10.762-0.336 16.156-1.024 20.948-2.662 42.344-4.016 63.594-4.020v-128c-27.128 0.002-53.754 1.738-79.742 5.042-109.978-109.978-241.25-129.7-368.176-132.596v26.916c68.536 33.578 128 94.74 128 164.636 0 9.754-0.758 19.33-2.164 28.696-115.796 76.264-189.836 192.754-189.836 323.304 0 229.75 229.23 416 512 416 278.458 0 504.992-180.614 511.836-405.52-41.096 18.316-85.84 29.422-132.262 32.578-11.53 56.068-45.402 108.816-98.252 151.756-35.322 28.698-76.916 51.39-123.628 67.444-49.706 17.080-102.76 25.742-157.694 25.742-54.932 0-107.988-8.662-157.694-25.742-46.712-16.054-88.306-38.744-123.628-67.444z" />
<glyph unicode="&#xe90d;" glyph-name="printer" d="M256 896h512v-128h-512v128zM960 704h-896c-35.2 0-64-28.8-64-64v-320c0-35.2 28.794-64 64-64h192v-256h512v256h192c35.2 0 64 28.8 64 64v320c0 35.2-28.8 64-64 64zM128 512c-35.346 0-64 28.654-64 64s28.654 64 64 64 64-28.654 64-64-28.652-64-64-64zM704 64h-384v320h384v-320z" />
<glyph unicode="&#xe90e;" glyph-name="calendar" d="M320 576h128v-128h-128zM512 576h128v-128h-128zM704 576h128v-128h-128zM128 192h128v-128h-128zM320 192h128v-128h-128zM512 192h128v-128h-128zM320 384h128v-128h-128zM512 384h128v-128h-128zM704 384h128v-128h-128zM128 384h128v-128h-128zM832 960v-64h-128v64h-448v-64h-128v64h-128v-1024h960v1024h-128zM896 0h-832v704h832v-704z" />
<glyph unicode="&#xe90f;" glyph-name="triangle-left" d="M716.8 716.8v-512l-460.8 256 460.8 256z" />
<glyph unicode="&#xe910;" glyph-name="triangle-right" d="M768 460.8l-460.8-256v512l460.8-256z" />
<glyph unicode="&#xe911;" glyph-name="floppy-disk" d="M896 960h-896v-1024h1024v896l-128 128zM512 832h128v-256h-128v256zM896 64h-768v768h64v-320h576v320h74.978l53.022-53.018v-714.982z" />
<glyph unicode="&#xe912;" glyph-name="link" d="M440.236 324.234c-13.31 0-26.616 5.076-36.77 15.23-95.134 95.136-95.134 249.934 0 345.070l192 192c46.088 46.086 107.36 71.466 172.534 71.466s126.448-25.38 172.536-71.464c95.132-95.136 95.132-249.934 0-345.070l-87.766-87.766c-20.308-20.308-53.23-20.308-73.54 0-20.306 20.306-20.306 53.232 0 73.54l87.766 87.766c54.584 54.586 54.584 143.404 0 197.99-26.442 26.442-61.6 41.004-98.996 41.004s-72.552-14.562-98.996-41.006l-192-191.998c-54.586-54.586-54.586-143.406 0-197.992 20.308-20.306 20.306-53.232 0-73.54-10.15-10.152-23.462-15.23-36.768-15.23zM256-52c-65.176 0-126.45 25.38-172.534 71.464-95.134 95.136-95.134 249.934 0 345.070l87.764 87.764c20.308 20.306 53.234 20.306 73.54 0 20.308-20.306 20.308-53.232 0-73.54l-87.764-87.764c-54.586-54.586-54.586-143.406 0-197.992 26.44-26.44 61.598-41.002 98.994-41.002s72.552 14.562 98.998 41.006l192 191.998c54.584 54.586 54.584 143.406 0 197.992-20.308 20.308-20.306 53.232 0 73.54 20.306 20.306 53.232 20.306 73.54-0.002 95.132-95.134 95.132-249.932 0.002-345.068l-192.002-192c-46.090-46.088-107.364-71.466-172.538-71.466z" />
<glyph unicode="&#xe913;" glyph-name="star-empty" d="M1024 562.95l-353.78 51.408-158.22 320.582-158.216-320.582-353.784-51.408 256-249.538-60.432-352.352 316.432 166.358 316.432-166.358-60.434 352.352 256.002 249.538zM512 206.502l-223.462-117.48 42.676 248.83-180.786 176.222 249.84 36.304 111.732 226.396 111.736-226.396 249.836-36.304-180.788-176.222 42.678-248.83-223.462 117.48z" />
<glyph unicode="&#xe914;" glyph-name="star-full" d="M1024 562.95l-353.78 51.408-158.22 320.582-158.216-320.582-353.784-51.408 256-249.538-60.432-352.352 316.432 166.358 316.432-166.358-60.434 352.352 256.002 249.538z" />
<glyph unicode="&#xe915;" glyph-name="questionnaire" d="M800 345.6v451.2c3.2 86.4-64 160-150.4 163.2h-496c-89.6-3.2-156.8-76.8-153.6-166.4v-243.2h128v-451.2c-3.2-86.4 64-160 150.4-163.2h595.2c83.2 0 150.4 67.2 150.4 150.4v259.2h-224zM153.6 880h384c-9.6-22.4-16-48-16-73.6v-179.2h-441.6v166.4c-3.2 44.8 28.8 83.2 73.6 86.4zM739.2 12.8h-460.8c-41.6 3.2-73.6 41.6-70.4 83.2v454.4h390.4v259.2c0 35.2 19.2 73.6 48 73.6 44.8-3.2 76.8-44.8 73.6-86.4v-707.2c0-28.8 6.4-54.4 19.2-76.8v0zM944 268.8v-179.2c0-41.6-32-73.6-73.6-73.6s-73.6 32-73.6 73.6v179.2h147.2zM275.2 499.2h323.2v-80h-323.2v80zM275.2 387.2h323.2v-80h-323.2v80zM275.2 275.2h227.2v-80h-227.2v80z" />
<glyph unicode="&#xe916;" glyph-name="time" d="M512 960c-282.77 0-512-229.23-512-512s229.23-512 512-512c282.77 0 512 229.23 512 512v0c-0.327 282.638-229.362 511.672-511.968 512h-0.032zM512 6.048c-244.083 0-441.952 197.869-441.952 441.952s197.869 441.952 441.952 441.952c244.083 0 441.952-197.869 441.952-441.952v0c-0.273-243.973-197.978-441.679-441.925-441.952h-0.027zM475.328 869.792h73.376v-118.208h-73.376v118.208zM475.328 156.032h73.376v-118.208h-73.376v118.208zM806.912 494.4h118.176v-73.344h-118.176v73.344zM97.92 494.4h118.176v-73.344h-118.176v73.344zM551.52 495.808v202.24h-73.344v-202.208c-14.67-11.162-24.044-28.63-24.044-48.288 0-33.42 27.092-60.512 60.512-60.512 0.072 0 0.143 0 0.215 0h-0.011c0.045 0 0.098 0 0.152 0 8.625 0 16.804 1.911 24.136 5.331l-0.351-0.147 147.040-83.648 35.744 64-146.56 83.392c-2.409 16.354-11.028 30.34-23.34 39.732l-0.148 0.108z" />
<glyph unicode="&#xe917;" glyph-name="books" horiz-adv-x="1152" d="M224 832h-192c-17.6 0-32-14.4-32-32v-704c0-17.6 14.4-32 32-32h192c17.6 0 32 14.4 32 32v704c0 17.6-14.4 32-32 32zM192 640h-128v64h128v-64zM544 832h-192c-17.6 0-32-14.4-32-32v-704c0-17.6 14.4-32 32-32h192c17.6 0 32 14.4 32 32v704c0 17.6-14.4 32-32 32zM512 640h-128v64h128v-64zM765.088 782.52l-171.464-86.394c-15.716-7.918-22.096-27.258-14.178-42.976l287.978-571.548c7.918-15.718 27.258-22.098 42.976-14.178l171.464 86.392c15.716 7.92 22.096 27.26 14.178 42.974l-287.978 571.55c-7.92 15.718-27.26 22.1-42.976 14.18z" />
<glyph unicode="&#xe918;" glyph-name="webinar" d="M908.8 899.2h-793.6c-64-3.2-115.2-51.2-115.2-115.2v-486.4c0-64 51.2-115.2 115.2-115.2h361.6v-112h-70.4c-19.2 3.2-35.2-12.8-38.4-32s12.8-35.2 32-38.4c3.2 0 3.2 0 6.4 0h208c19.2 3.2 35.2 19.2 32 38.4 0 16-16 28.8-32 32h-70.4v112h361.6c64 0 115.2 51.2 115.2 115.2v486.4c3.2 64-48 112-112 115.2zM953.6 297.6c0-25.6-19.2-44.8-44.8-44.8h-793.6c-25.6 0-44.8 19.2-44.8 44.8v48h883.2v-48zM70.4 784c0 25.6 19.2 44.8 44.8 44.8h796.8c25.6 0 44.8-19.2 44.8-44.8v-368h-886.4v368zM512 515.2c64 0 118.4 51.2 118.4 118.4 0 64-51.2 118.4-118.4 118.4-64 0-118.4-51.2-118.4-118.4s54.4-118.4 118.4-118.4v0zM470.4 704l121.6-70.4-121.6-70.4v140.8z" />
<glyph unicode="&#xe919;" glyph-name="feedback" d="M144 694.4h732.8v-70.4h-732.8v70.4zM144 579.2h732.8v-70.4h-732.8v70.4zM144 460.8h483.2v-70.4h-483.2v70.4zM892.8 880h-761.6c-70.4 0-131.2-57.6-131.2-131.2v-428.8c0-73.6 60.8-131.2 131.2-131.2h460.8l121.6-172.8 121.6 172.8h51.2c73.6 0 131.2 60.8 131.2 131.2v428.8c6.4 73.6-54.4 131.2-124.8 131.2zM892.8 259.2h-89.6l-86.4-121.6-86.4 121.6h-499.2c-32 0-60.8 28.8-60.8 60.8v428.8c0 32 28.8 60.8 60.8 60.8v0h758.4c32 0 60.8-28.8 60.8-60.8v-428.8c3.2-32-25.6-60.8-57.6-60.8 0 0 0 0 0 0z" />
<glyph unicode="&#xe91a;" glyph-name="invite" d="M0 800v-704h1024v704h-1024zM67.2 214.4v476.8l249.6-227.2-249.6-249.6zM512 281.6l144 134.4 249.6-249.6h-790.4l249.6 249.6 147.2-134.4zM512 374.4l-387.2 358.4h777.6l-390.4-358.4zM707.2 460.8l249.6 227.2v-476.8l-249.6 249.6z" />
<glyph unicode="&#xe91b;" glyph-name="module" d="M0 115.2l553.6-105.6h6.4l464 153.6v659.2l-515.2 64-508.8-112v-659.2zM83.2 185.6v502.4l435.2-80v-502.4l-435.2 80zM803.2 764.8l-249.6-83.2-313.6 60.8 275.2 60.8 288-38.4zM601.6 108.8v502.4l339.2 112v-499.2l-339.2-115.2z" />
<glyph unicode="&#xe91c;" glyph-name="home2" d="M512 928l-512-512 96-96 96 96v-416h256v192h128v-192h256v416l96-96 96 96-512 512zM512 512c-35.346 0-64 28.654-64 64s28.654 64 64 64c35.346 0 64-28.654 64-64s-28.654-64-64-64z" />
<glyph unicode="&#xe91d;" glyph-name="swap" d="M716.8 716.8h-512v102.4l-204.8-179.2 204.8-179.2v102.4h512v153.6zM1024 281.6l-204.8 179.2v-102.4h-512v-153.6h512v-102.4l204.8 179.2z" />
<glyph unicode="&#xe91e;" glyph-name="icon-info" d="M512 874.667c-235.648 0-426.667-191.019-426.667-426.667s191.019-426.667 426.667-426.667 426.667 191.019 426.667 426.667-191.019 426.667-426.667 426.667zM554.667 234.667h-85.333v256h85.333v-256zM554.667 576h-85.333v85.333h85.333v-85.333z" />
<glyph unicode="&#xe91f;" glyph-name="volume" d="M747.179 448c0 65.536-40.277 123.563-100.352 147.115v200.704c0 11.947-6.144 23.211-16.384 30.037-10.923 7.168-24.576 8.192-36.523 3.072l-390.144-169.301h-163.157c-22.528 0-40.619-18.091-40.619-40.619v-342.357c0-22.187 18.091-40.619 40.619-40.619h163.157l390.144-168.96c5.12-2.048 10.24-3.072 15.36-3.072 7.509 0 14.677 2.048 21.163 6.485 10.24 6.827 16.384 18.091 16.384 30.037v200.704c60.075 23.211 100.352 81.237 100.352 146.773zM49.493 610.133h134.485v-324.267h-134.485v324.267zM597.333 119.637l-363.861 157.696v341.333l363.861 157.696v-656.725zM647.168 356.181v183.979c30.72-19.456 50.517-53.931 50.517-91.819s-19.797-72.704-50.517-92.16zM777.899 689.323c-11.605 7.509-26.965 4.096-34.475-7.168-7.509-11.605-4.096-26.965 7.168-34.475 67.925-44.032 108.544-118.784 108.544-199.68 0-80.213-40.277-154.624-107.179-198.997-11.605-7.509-14.677-22.869-7.168-34.475 4.779-7.168 12.629-11.264 20.821-11.264 4.779 0 9.557 1.365 13.653 4.096 81.237 53.589 129.707 143.36 129.707 240.299 0 97.963-49.152 188.416-131.072 241.664zM902.144 757.248c-9.216 9.899-24.917 10.581-35.157 1.365-9.899-9.216-10.581-24.917-1.365-35.157 69.973-75.093 108.544-172.715 108.544-275.456 0-102.059-38.229-199.339-107.179-274.091-9.216-9.899-8.533-25.6 1.365-35.157 4.779-4.437 10.923-6.485 16.725-6.485 6.827 0 13.312 2.731 18.091 7.851 77.824 83.968 120.491 193.195 120.491 307.883 0.341 115.029-43.008 224.939-121.515 309.248z" />
<glyph unicode="&#xe920;" glyph-name="volume-logo" d="M897.707 194.389l-58.368 25.259c22.187 73.728 33.451 150.528 33.451 228.011 0 77.141-11.264 153.6-33.109 226.987l131.755 57.344c3.755-16.043 7.168-32.085 10.24-48.128 1.024-5.803 6.485-9.216 12.288-8.192s9.216 6.485 8.192 12.288c-3.755 20.48-8.192 40.96-13.312 61.099l-3.072 11.947-327.68-142.336 3.413-9.216c0-0.341 7.509-19.797 15.701-46.421 1.365-4.437 5.461-7.509 9.899-7.509 1.024 0 2.048 0 3.072 0.341 5.461 1.707 8.533 7.509 6.827 12.971-5.12 16.384-9.557 29.696-12.629 38.229l135.851 59.392c20.821-70.656 31.744-144.043 31.744-218.453 0-74.752-10.923-148.821-32.085-219.819l-51.2 22.187c-5.12 2.389-11.264 0-13.653-5.461-2.389-5.12 0-11.264 5.461-13.653l129.024-55.979c1.365-0.683 2.731-1.024 4.096-1.024 4.096 0 7.851 2.389 9.557 6.144 2.389 5.461-0.341 11.605-5.461 13.995zM548.864 570.539v185.003c0 6.827-3.413 13.312-9.557 17.067-6.485 4.096-14.336 4.779-21.504 1.707l-346.795-150.528h-146.773c-13.312 0-24.235-10.923-24.235-24.235v-302.763c0-13.312 10.923-24.235 24.235-24.235h146.432l347.136-150.528c3.072-1.365 6.144-2.048 9.216-2.048 4.437 0 8.533 1.365 12.288 3.755 5.803 3.755 9.557 10.24 9.557 17.067v184.661c52.907 17.067 89.088 66.56 89.088 122.539s-36.181 105.472-89.088 122.539zM162.475 293.376h-138.24c-2.048 0-3.413 1.707-3.413 3.413v302.763c0 2.048 1.707 3.413 3.413 3.413h138.24v-309.589zM526.336 140.8l-342.699 148.821v316.757l342.699 148.821c0.341 0 0.683 0.341 1.024 0.341s0.683 0 0.683 0v-614.4c0-0.341-0.683-0.683-1.707-0.341zM548.864 348.672v198.656c40.277-16.043 67.243-55.296 67.243-99.328s-26.965-83.285-67.243-99.328zM1012.053 625.493c-0.683 5.803-6.144 9.557-11.605 8.875-5.803-0.683-9.557-6.144-8.875-11.605 7.851-55.637 11.605-112.64 11.605-169.301 0-101.717-12.629-202.752-37.205-300.373-1.365-5.461 2.048-11.264 7.509-12.629 1.024-0.341 1.707-0.341 2.389-0.341 4.779 0 8.875 3.072 10.24 7.851 25.259 99.328 37.888 202.069 37.888 305.493 0 57.685-4.096 115.371-11.947 172.032zM699.733 521.045c-5.461-1.365-9.216-6.827-7.851-12.629 5.803-24.917 8.533-45.056 8.533-60.416 0-56.661-12.971-110.592-38.229-160.427-2.731-5.12-0.683-11.264 4.437-13.995 1.365-0.683 3.072-1.024 4.779-1.024 3.755 0 7.509 2.048 9.216 5.803 26.965 52.907 40.619 110.251 40.619 169.984 0 17.067-3.072 38.912-9.216 65.195-1.024 5.12-6.485 8.875-12.288 7.509z" />
<glyph unicode="&#xe921;" glyph-name="cross" d="M1014.662 137.34c-0.004 0.004-0.008 0.008-0.012 0.010l-310.644 310.65 310.644 310.65c0.004 0.004 0.008 0.006 0.012 0.010 3.344 3.346 5.762 7.254 7.312 11.416 4.246 11.376 1.824 24.682-7.324 33.83l-146.746 146.746c-9.148 9.146-22.45 11.566-33.828 7.32-4.16-1.55-8.070-3.968-11.418-7.31 0-0.004-0.004-0.006-0.008-0.010l-310.648-310.652-310.648 310.65c-0.004 0.004-0.006 0.006-0.010 0.010-3.346 3.342-7.254 5.76-11.414 7.31-11.38 4.248-24.682 1.826-33.83-7.32l-146.748-146.748c-9.148-9.148-11.568-22.452-7.322-33.828 1.552-4.16 3.97-8.072 7.312-11.416 0.004-0.002 0.006-0.006 0.010-0.010l310.65-310.648-310.65-310.652c-0.002-0.004-0.006-0.006-0.008-0.010-3.342-3.346-5.76-7.254-7.314-11.414-4.248-11.376-1.826-24.682 7.322-33.83l146.748-146.746c9.15-9.148 22.452-11.568 33.83-7.322 4.16 1.552 8.070 3.97 11.416 7.312 0.002 0.004 0.006 0.006 0.010 0.010l310.648 310.65 310.648-310.65c0.004-0.002 0.008-0.006 0.012-0.008 3.348-3.344 7.254-5.762 11.414-7.314 11.378-4.246 24.684-1.826 33.828 7.322l146.746 146.748c9.148 9.148 11.57 22.454 7.324 33.83-1.552 4.16-3.97 8.068-7.314 11.414z" />
<glyph unicode="&#xe922;" glyph-name="cross1" d="M1014.662 137.34c-0.004 0.004-0.008 0.008-0.012 0.010l-310.644 310.65 310.644 310.65c0.004 0.004 0.008 0.006 0.012 0.010 3.344 3.346 5.762 7.254 7.312 11.416 4.246 11.376 1.824 24.682-7.324 33.83l-146.746 146.746c-9.148 9.146-22.45 11.566-33.828 7.32-4.16-1.55-8.070-3.968-11.418-7.31 0-0.004-0.004-0.006-0.008-0.010l-310.648-310.652-310.648 310.65c-0.004 0.004-0.006 0.006-0.010 0.010-3.346 3.342-7.254 5.76-11.414 7.31-11.38 4.248-24.682 1.826-33.83-7.32l-146.748-146.748c-9.148-9.148-11.568-22.452-7.322-33.828 1.552-4.16 3.97-8.072 7.312-11.416 0.004-0.002 0.006-0.006 0.010-0.010l310.65-310.648-310.65-310.652c-0.002-0.004-0.006-0.006-0.008-0.010-3.342-3.346-5.76-7.254-7.314-11.414-4.248-11.376-1.826-24.682 7.322-33.83l146.748-146.746c9.15-9.148 22.452-11.568 33.83-7.322 4.16 1.552 8.070 3.97 11.416 7.312 0.002 0.004 0.006 0.006 0.010 0.010l310.648 310.65 310.648-310.65c0.004-0.002 0.008-0.006 0.012-0.008 3.348-3.344 7.254-5.762 11.414-7.314 11.378-4.246 24.684-1.826 33.828 7.322l146.746 146.748c9.148 9.148 11.57 22.454 7.324 33.83-1.552 4.16-3.97 8.068-7.314 11.414z" />
<glyph unicode="&#xe923;" glyph-name="uniE923" d="M1024 448c0-282.77-229.23-512-512-512s-512 229.23-512 512c0 282.77 229.23 512 512 512s512-229.23 512-512z" />
<glyph unicode="&#xe924;" glyph-name="uniE924" d="M712 691.12h-400c-48.313 0-87.479-39.161-87.488-87.471v-226.593c0.018-48.305 39.181-87.456 87.488-87.456h287.808l48.896-84.8 48.896 84.8h14.4c48.313 0 87.479 39.161 87.488 87.471v226.577c-0.009 48.311-39.175 87.472-87.488 87.472v0zM364.896 583.776h294.208c8.837 0 16-7.163 16-16s-7.163-16-16-16v0h-294.208c-8.837 0-16 7.163-16 16s7.163 16 16 16v0zM364.896 506.352h294.208c8.837 0 16-7.163 16-16s-7.163-16-16-16v0h-294.208c-8.837 0-16 7.163-16 16s7.163 16 16 16v0zM348.896 412.928c0 8.837 7.163 16 16 16v0h198.208c8.837 0 16-7.163 16-16s-7.163-16-16-16v0h-198.208c-8.837 0-16 7.163-16 16v0z" />
<glyph unicode="&#xe925;" glyph-name="files-empty" d="M917.806 602.924c-22.21 30.292-53.174 65.7-87.178 99.704s-69.412 64.964-99.704 87.178c-51.574 37.82-76.592 42.194-90.924 42.194h-368c-44.114 0-80-35.888-80-80v-736c0-44.112 35.886-80 80-80h608c44.112 0 80 35.888 80 80v496c0 14.332-4.372 39.35-42.194 90.924zM785.374 657.374c30.7-30.7 54.8-58.398 72.58-81.374h-153.954v153.946c22.982-17.78 50.678-41.878 81.374-72.572v0zM896 16c0-8.672-7.328-16-16-16h-608c-8.672 0-16 7.328-16 16v736c0 8.672 7.328 16 16 16 0 0 367.956 0.002 368 0v-224c0-17.672 14.324-32 32-32h224v-496zM602.924 917.804c-51.574 37.822-76.592 42.196-90.924 42.196h-368c-44.112 0-80-35.888-80-80v-736c0-38.632 27.528-70.958 64-78.39v814.39c0 8.672 7.328 16 16 16h486.876c-9.646 7.92-19.028 15.26-27.952 21.804z" />
<glyph unicode="&#xe926;" glyph-name="files-empty1" d="M917.806 602.924c-22.21 30.292-53.174 65.7-87.178 99.704s-69.412 64.964-99.704 87.178c-51.574 37.82-76.592 42.194-90.924 42.194h-368c-44.114 0-80-35.888-80-80v-736c0-44.112 35.886-80 80-80h608c44.112 0 80 35.888 80 80v496c0 14.332-4.372 39.35-42.194 90.924zM785.374 657.374c30.7-30.7 54.8-58.398 72.58-81.374h-153.954v153.946c22.982-17.78 50.678-41.878 81.374-72.572v0zM896 16c0-8.672-7.328-16-16-16h-608c-8.672 0-16 7.328-16 16v736c0 8.672 7.328 16 16 16 0 0 367.956 0.002 368 0v-224c0-17.672 14.324-32 32-32h224v-496zM602.924 917.804c-51.574 37.822-76.592 42.196-90.924 42.196h-368c-44.112 0-80-35.888-80-80v-736c0-38.632 27.528-70.958 64-78.39v814.39c0 8.672 7.328 16 16 16h486.876c-9.646 7.92-19.028 15.26-27.952 21.804z" />
<glyph unicode="&#xe927;" glyph-name="files-empty11" d="M917.806 602.924c-22.21 30.292-53.174 65.7-87.178 99.704s-69.412 64.964-99.704 87.178c-51.574 37.82-76.592 42.194-90.924 42.194h-368c-44.114 0-80-35.888-80-80v-736c0-44.112 35.886-80 80-80h608c44.112 0 80 35.888 80 80v496c0 14.332-4.372 39.35-42.194 90.924zM785.374 657.374c30.7-30.7 54.8-58.398 72.58-81.374h-153.954v153.946c22.982-17.78 50.678-41.878 81.374-72.572v0zM896 16c0-8.672-7.328-16-16-16h-608c-8.672 0-16 7.328-16 16v736c0 8.672 7.328 16 16 16 0 0 367.956 0.002 368 0v-224c0-17.672 14.324-32 32-32h224v-496zM602.924 917.804c-51.574 37.822-76.592 42.196-90.924 42.196h-368c-44.112 0-80-35.888-80-80v-736c0-38.632 27.528-70.958 64-78.39v814.39c0 8.672 7.328 16 16 16h486.876c-9.646 7.92-19.028 15.26-27.952 21.804z" />
<glyph unicode="&#xe928;" glyph-name="questionmark" horiz-adv-x="456" d="M132.129 233.29l-3.003 37.537c-9.009 79.578 18.018 166.663 91.589 255.249 66.065 78.076 103.601 135.132 103.601 201.196 0 75.073-46.545 124.622-139.636 126.123-52.551 0-111.109-18.018-148.645-45.044l-36.035 93.091c48.047 34.534 132.129 58.557 210.205 58.557 169.666 0 246.24-105.103 246.24-216.211 0-100.598-55.554-172.669-126.123-256.751-64.563-76.575-88.587-141.138-84.082-216.211l1.501-37.537h-115.613zM100.598 27.589c0 54.053 37.537 93.091 88.587 93.091s87.085-37.537 87.085-93.091c0-51.050-34.534-91.589-88.587-91.589-52.551 0-87.085 39.038-87.085 91.589z" />
<glyph unicode="&#xe929;" glyph-name="files-empty111" d="M917.806 602.924c-22.21 30.292-53.174 65.7-87.178 99.704s-69.412 64.964-99.704 87.178c-51.574 37.82-76.592 42.194-90.924 42.194h-368c-44.114 0-80-35.888-80-80v-736c0-44.112 35.886-80 80-80h608c44.112 0 80 35.888 80 80v496c0 14.332-4.372 39.35-42.194 90.924zM785.374 657.374c30.7-30.7 54.8-58.398 72.58-81.374h-153.954v153.946c22.982-17.78 50.678-41.878 81.374-72.572v0zM896 16c0-8.672-7.328-16-16-16h-608c-8.672 0-16 7.328-16 16v736c0 8.672 7.328 16 16 16 0 0 367.956 0.002 368 0v-224c0-17.672 14.324-32 32-32h224v-496zM602.924 917.804c-51.574 37.822-76.592 42.196-90.924 42.196h-368c-44.112 0-80-35.888-80-80v-736c0-38.632 27.528-70.958 64-78.39v814.39c0 8.672 7.328 16 16 16h486.876c-9.646 7.92-19.028 15.26-27.952 21.804z" />
<glyph unicode="&#xe92a;" glyph-name="questionmark1" horiz-adv-x="456" d="M132.129 233.29l-3.003 37.537c-9.009 79.578 18.018 166.663 91.589 255.249 66.065 78.076 103.601 135.132 103.601 201.196 0 75.073-46.545 124.622-139.636 126.123-52.551 0-111.109-18.018-148.645-45.044l-36.035 93.091c48.047 34.534 132.129 58.557 210.205 58.557 169.666 0 246.24-105.103 246.24-216.211 0-100.598-55.554-172.669-126.123-256.751-64.563-76.575-88.587-141.138-84.082-216.211l1.501-37.537h-115.613zM100.598 27.589c0 54.053 37.537 93.091 88.587 93.091s87.085-37.537 87.085-93.091c0-51.050-34.534-91.589-88.587-91.589-52.551 0-87.085 39.038-87.085 91.589z" />
<glyph unicode="&#xe92d;" glyph-name="check" d="M424.653 102.502c-22.272 0-43.366 10.394-56.883 28.314l-182.938 241.715c-23.808 31.386-17.613 76.083 13.824 99.891 31.488 23.91 76.186 17.613 99.994-13.824l120.371-158.925 302.643 485.99c20.838 33.382 64.87 43.622 98.355 22.784 33.434-20.787 43.725-64.819 22.835-98.304l-357.581-573.952c-12.39-20.019-33.843-32.512-57.344-33.587-1.126-0.102-2.15-0.102-3.277-0.102z" />
<glyph unicode="&#xe931;" glyph-name="volume-mute1" d="M635.221 592.384v196.949c0 11.947-6.144 22.869-16.043 29.696-10.581 7.168-24.235 8.192-35.84 3.072l-383.317-166.229h-160.085c-22.187 0-39.936-18.091-39.936-39.936v-335.872c0-21.845 17.749-39.936 39.936-39.936h160.085l382.976-166.229c4.779-2.048 9.899-3.072 15.36-3.072 7.168 0 14.336 2.048 20.821 6.144 10.24 6.485 16.043 17.749 16.043 29.696v196.949c58.709 23.211 98.304 80.213 98.304 144.384 0 64.512-39.595 121.515-98.304 144.384zM180.565 288.939h-131.755v318.123h131.755v-318.123zM586.411 125.44l-357.035 154.965v334.848l357.035 154.965v-644.779zM635.221 357.888v180.565c30.379-19.115 49.835-52.907 49.835-90.112-0.341-37.888-19.797-71.339-49.835-90.453zM870.741 758.272l51.2 51.2c8.533 8.533 8.533 22.869 0 31.403s-22.869 8.533-31.403 0l-51.2-51.2-51.2 51.2c-8.533 8.533-22.869 8.533-31.403 0s-8.533-22.869 0-31.403l51.2-51.2-51.2-51.2c-8.533-8.533-8.533-22.869 0-31.403 4.437-4.437 9.899-6.485 15.701-6.485s11.264 2.048 15.701 6.485l51.2 51.2 51.2-51.2c4.437-4.437 9.899-6.485 15.701-6.485s11.264 2.048 15.701 6.485c8.533 8.533 8.533 22.869 0 31.403l-51.2 51.2z" />
<glyph unicode="&#xe932;" glyph-name="unlocked" d="M705.918 599.965c-4.059 12.626-15.7 21.603-29.437 21.603-3.296 0-6.471-0.517-9.449-1.474l0.218 0.061-420.757-132.142-80.010 254.808c-2.193 6.759-3.457 14.535-3.457 22.608 0 33.656 21.977 62.179 52.364 72.001l0.535 0.15 222.177 69.815c6.759 2.193 14.535 3.457 22.608 3.457 33.656 0 62.179-21.977 72.001-52.364l0.15-0.535 34.908-111.096c3.42-9.551 12.392-16.262 22.933-16.262 13.421 0 24.301 10.88 24.301 24.301 0 2.284-0.315 4.494-0.904 6.59l0.041-0.171-34.892 111.173c-16.273 50.835-63.11 86.994-118.391 86.994-13.31 0-26.131-2.096-38.15-5.977l0.878 0.245-222.193-69.77c-50.828-16.364-86.959-63.237-86.959-118.548 0-13.263 2.077-26.041 5.925-38.026l-0.244 0.88 80.101-254.838-8.039-2.522c-12.629-4.051-21.611-15.691-21.611-29.428 0-3.305 0.52-6.488 1.482-9.473l-0.061 0.218 149.183-475.075c4.063-12.629 15.708-21.607 29.45-21.607 3.302 0 6.484 0.519 9.467 1.479l-0.219-0.061 475.075 149.229c12.621 4.062 21.593 15.7 21.593 29.434 0 3.303-0.519 6.484-1.479 9.467l0.061-0.218zM706.331 731.281c2.411-7.474 9.292-12.792 17.42-12.823h0.004c0.039 0 0.086 0 0.132 0 1.884 0 3.699 0.291 5.405 0.83l-0.127-0.035 160.692 49.702c7.498 2.383 12.836 9.284 12.836 17.431 0 10.081-8.172 18.254-18.254 18.254-1.934 0-3.798-0.301-5.547-0.858l0.129 0.036-160.692-49.687c-7.484-2.425-12.8-9.333-12.8-17.483 0-1.914 0.293-3.76 0.838-5.495l-0.035 0.13zM893.371 647.115l-160.478 29.834c-0.927 0.164-1.995 0.258-3.084 0.258-8.954 0-16.426-6.342-18.17-14.78l-0.021-0.12c-0.185-0.979-0.291-2.105-0.291-3.257 0-8.919 6.366-16.35 14.802-17.999l0.116-0.019 160.478-29.834c0.996-0.173 2.143-0.273 3.314-0.275h0.002c0.002 0 0.004 0 0.006 0 10.078 0 18.249 8.17 18.249 18.249 0 8.902-6.375 16.316-14.808 17.925l-0.114 0.018zM683.39 787.662c0.013 0 0.028 0 0.043 0 5.325 0 10.112 2.3 13.424 5.96l0.014 0.016 109.201 120.175c3.213 3.282 5.196 7.78 5.196 12.741 0 10.062-8.156 18.218-18.218 18.218-5.588 0-10.589-2.516-13.931-6.478l-0.022-0.027-109.201-120.114c-2.937-3.225-4.735-7.531-4.735-12.257 0-10.069 8.162-18.232 18.23-18.233v0z" />
<glyph unicode="&#xe935;" glyph-name="icon-download" d="M670.080 516.016v443.984h-316.16v-443.984h-230.912l388.992-510.96 388.992 510.96h-230.912zM123.008 5.056v-69.056h777.984v69.056h-777.984z" />
<glyph unicode="&#xe936;" glyph-name="icon-download1" d="M670.080 516.016v443.984h-316.16v-443.984h-230.912l388.992-510.96 388.992 510.96h-230.912zM123.008 5.056v-69.056h777.984v69.056h-777.984z" />
<glyph unicode="&#xe937;" glyph-name="icon-idea" d="M442.672 147.68c-0.003 0-0.007 0-0.011 0-17.161 0-31.072 13.911-31.072 31.072 0 12.021 6.826 22.447 16.813 27.614l0.173 0.082 125.376 63.712v45.168l21.68 6.88c84.057 28.238 143.534 106.307 143.534 198.268 0 115.264-93.44 208.704-208.704 208.704s-208.704-93.44-208.704-208.704c0-100.81 71.474-184.925 166.511-204.437l1.347-0.231c14.847-2.51 26.015-15.273 26.015-30.644 0-17.152-13.904-31.056-31.056-31.056-2.635 0-5.194 0.328-7.637 0.946l0.215-0.046c-126.38 25.861-220.104 136.145-220.104 268.319 0 151.105 122.495 273.6 273.6 273.6s273.6-122.495 273.6-273.6c0-113.045-68.558-210.077-166.365-251.786l-1.787-0.677v-38.864l-159.376-80.992c-4.062-2.098-8.866-3.328-13.957-3.328-0.032 0-0.064 0-0.096 0h0.005zM442.672 56.224c-0.003 0-0.007 0-0.011 0-17.161 0-31.072 13.911-31.072 31.072 0 12.021 6.826 22.447 16.813 27.614l0.173 0.082 142.4 72.352c4.005 2.017 8.73 3.198 13.73 3.198 17.161 0 31.072-13.911 31.072-31.072 0-11.884-6.672-22.21-16.474-27.436l-0.167-0.081-142.4-72.352c-4.086-2.128-8.923-3.376-14.051-3.376-0.005 0-0.009 0-0.014 0h0.001zM915.472 443.952h-74.832c-0.21-0.005-0.457-0.008-0.705-0.008-17.161 0-31.072 13.911-31.072 31.072s13.911 31.072 31.072 31.072c0.248 0 0.495-0.003 0.742-0.009l-0.037 0.001h74.832c16.855-0.395 30.367-14.151 30.367-31.064s-13.512-30.669-30.33-31.063l-0.037-0.001zM767.040 698.992c-17.144 0.022-31.034 13.925-31.034 31.072 0 8.563 3.464 16.317 9.066 21.937l52.927 52.927c5.621 5.619 13.385 9.094 21.96 9.094 17.155 0 31.062-13.907 31.062-31.062 0-8.579-3.478-16.347-9.102-21.968l-52.912-52.912c-5.602-5.615-13.348-9.088-21.905-9.088-0.022 0-0.044 0-0.066 0h0.003zM512 823.040c-17.161 0-31.072 13.911-31.072 31.072v0 74.816c0 17.161 13.911 31.072 31.072 31.072s31.072-13.911 31.072-31.072v0-74.816c0-17.161-13.911-31.072-31.072-31.072v0zM203.568 135.52c-17.151 0.013-31.050 13.919-31.050 31.072 0 8.571 3.47 16.331 9.082 21.952v0l52.912 52.912c5.671 5.971 13.669 9.685 22.533 9.685 17.152 0 31.056-13.904 31.056-31.056 0-8.873-3.721-16.877-9.688-22.536l-0.014-0.013-52.8-52.912c-5.599-5.624-13.347-9.104-21.908-9.104-0.043 0-0.087 0-0.13 0h0.007zM256.48 698.992c-0.018 0-0.039 0-0.060 0-8.561 0-16.309 3.48-21.907 9.103l-52.913 52.913c-5.617 5.625-9.090 13.391-9.090 21.968 0 17.171 13.92 31.090 31.090 31.090 8.593 0 16.372-3.486 22-9.122v0l52.8-52.944c5.611-5.621 9.082-13.381 9.082-21.952 0-17.153-13.899-31.059-31.048-31.072h-0.001zM819.968 135.52c-0.018 0-0.039 0-0.060 0-8.561 0-16.309 3.48-21.907 9.103l-52.929 52.913c-5.619 5.621-9.094 13.385-9.094 21.96 0 17.155 13.907 31.062 31.062 31.062 8.579 0 16.347-3.478 21.968-9.102l52.912-52.912c5.611-5.621 9.082-13.381 9.082-21.952 0-17.147-13.889-31.050-31.031-31.072h-0.002zM183.36 443.952h-74.832c-16.855 0.395-30.367 14.151-30.367 31.064s13.512 30.669 30.33 31.063l0.037 0.001h74.832c0.21 0.005 0.457 0.008 0.705 0.008 17.161 0 31.072-13.911 31.072-31.072s-13.911-31.072-31.072-31.072c-0.248 0-0.495 0.003-0.742 0.009l0.037-0.001zM519.12-64c-48.101 0.091-87.065 39.078-87.12 87.179v0.005c-0.005 0.21-0.008 0.457-0.008 0.705 0 17.161 13.911 31.072 31.072 31.072s31.072-13.911 31.072-31.072c0-0.248-0.003-0.495-0.009-0.742l0.001 0.037c-0.005-0.189-0.008-0.41-0.008-0.633 0-13.838 11.218-25.056 25.056-25.056s25.056 11.218 25.056 25.056c0 0.223-0.003 0.445-0.009 0.666l0.001-0.033c-0.005 0.21-0.008 0.457-0.008 0.705 0 17.161 13.911 31.072 31.072 31.072s31.072-13.911 31.072-31.072c0-0.248-0.003-0.495-0.009-0.742l0.001 0.037c-0.055-48.145-39.083-87.157-87.229-87.184h-0.003z" />
<glyph unicode="&#xe938;" glyph-name="icon-idea1" d="M442.672 147.68c-0.003 0-0.007 0-0.011 0-17.161 0-31.072 13.911-31.072 31.072 0 12.021 6.826 22.447 16.813 27.614l0.173 0.082 125.376 63.712v45.168l21.68 6.88c84.057 28.238 143.534 106.307 143.534 198.268 0 115.264-93.44 208.704-208.704 208.704s-208.704-93.44-208.704-208.704c0-100.81 71.474-184.925 166.511-204.437l1.347-0.231c14.847-2.51 26.015-15.273 26.015-30.644 0-17.152-13.904-31.056-31.056-31.056-2.635 0-5.194 0.328-7.637 0.946l0.215-0.046c-126.38 25.861-220.104 136.145-220.104 268.319 0 151.105 122.495 273.6 273.6 273.6s273.6-122.495 273.6-273.6c0-113.045-68.558-210.077-166.365-251.786l-1.787-0.677v-38.864l-159.376-80.992c-4.062-2.098-8.866-3.328-13.957-3.328-0.032 0-0.064 0-0.096 0h0.005zM442.672 56.224c-0.003 0-0.007 0-0.011 0-17.161 0-31.072 13.911-31.072 31.072 0 12.021 6.826 22.447 16.813 27.614l0.173 0.082 142.4 72.352c4.005 2.017 8.73 3.198 13.73 3.198 17.161 0 31.072-13.911 31.072-31.072 0-11.884-6.672-22.21-16.474-27.436l-0.167-0.081-142.4-72.352c-4.086-2.128-8.923-3.376-14.051-3.376-0.005 0-0.009 0-0.014 0h0.001zM915.472 443.952h-74.832c-0.21-0.005-0.457-0.008-0.705-0.008-17.161 0-31.072 13.911-31.072 31.072s13.911 31.072 31.072 31.072c0.248 0 0.495-0.003 0.742-0.009l-0.037 0.001h74.832c16.855-0.395 30.367-14.151 30.367-31.064s-13.512-30.669-30.33-31.063l-0.037-0.001zM767.040 698.992c-17.144 0.022-31.034 13.925-31.034 31.072 0 8.563 3.464 16.317 9.066 21.937l52.927 52.927c5.621 5.619 13.385 9.094 21.96 9.094 17.155 0 31.062-13.907 31.062-31.062 0-8.579-3.478-16.347-9.102-21.968l-52.912-52.912c-5.602-5.615-13.348-9.088-21.905-9.088-0.022 0-0.044 0-0.066 0h0.003zM512 823.040c-17.161 0-31.072 13.911-31.072 31.072v0 74.816c0 17.161 13.911 31.072 31.072 31.072s31.072-13.911 31.072-31.072v0-74.816c0-17.161-13.911-31.072-31.072-31.072v0zM203.568 135.52c-17.151 0.013-31.050 13.919-31.050 31.072 0 8.571 3.47 16.331 9.082 21.952v0l52.912 52.912c5.671 5.971 13.669 9.685 22.533 9.685 17.152 0 31.056-13.904 31.056-31.056 0-8.873-3.721-16.877-9.688-22.536l-0.014-0.013-52.8-52.912c-5.599-5.624-13.347-9.104-21.908-9.104-0.043 0-0.087 0-0.13 0h0.007zM256.48 698.992c-0.018 0-0.039 0-0.060 0-8.561 0-16.309 3.48-21.907 9.103l-52.913 52.913c-5.617 5.625-9.090 13.391-9.090 21.968 0 17.171 13.92 31.090 31.090 31.090 8.593 0 16.372-3.486 22-9.122v0l52.8-52.944c5.611-5.621 9.082-13.381 9.082-21.952 0-17.153-13.899-31.059-31.048-31.072h-0.001zM819.968 135.52c-0.018 0-0.039 0-0.060 0-8.561 0-16.309 3.48-21.907 9.103l-52.929 52.913c-5.619 5.621-9.094 13.385-9.094 21.96 0 17.155 13.907 31.062 31.062 31.062 8.579 0 16.347-3.478 21.968-9.102l52.912-52.912c5.611-5.621 9.082-13.381 9.082-21.952 0-17.147-13.889-31.050-31.031-31.072h-0.002zM183.36 443.952h-74.832c-16.855 0.395-30.367 14.151-30.367 31.064s13.512 30.669 30.33 31.063l0.037 0.001h74.832c0.21 0.005 0.457 0.008 0.705 0.008 17.161 0 31.072-13.911 31.072-31.072s-13.911-31.072-31.072-31.072c-0.248 0-0.495 0.003-0.742 0.009l0.037-0.001zM519.12-64c-48.101 0.091-87.065 39.078-87.12 87.179v0.005c-0.005 0.21-0.008 0.457-0.008 0.705 0 17.161 13.911 31.072 31.072 31.072s31.072-13.911 31.072-31.072c0-0.248-0.003-0.495-0.009-0.742l0.001 0.037c-0.005-0.189-0.008-0.41-0.008-0.633 0-13.838 11.218-25.056 25.056-25.056s25.056 11.218 25.056 25.056c0 0.223-0.003 0.445-0.009 0.666l0.001-0.033c-0.005 0.21-0.008 0.457-0.008 0.705 0 17.161 13.911 31.072 31.072 31.072s31.072-13.911 31.072-31.072c0-0.248-0.003-0.495-0.009-0.742l0.001 0.037c-0.055-48.145-39.083-87.157-87.229-87.184h-0.003z" />
<glyph unicode="&#xe939;" glyph-name="icon-lock" d="M788.944 538.624h-17.744v316.272c-0.064 58.039-47.11 105.068-105.149 105.104h-308.067c-58.018-0.073-105.031-47.086-105.104-105.097v-316.279h-17.824c-13.458 0-24.368-10.91-24.368-24.368v0-553.888c0-13.458 10.91-24.368 24.368-24.368v0h553.888c13.458 0 24.368 10.91 24.368 24.368v553.888c0 13.458-10.91 24.368-24.368 24.368v0zM305.264 854.896c0.045 29.098 23.622 52.675 52.716 52.72h308.068c29.161 0 52.8-23.639 52.8-52.8v0-316.192h-413.584z" />
<glyph unicode="&#xe93a;" glyph-name="icon-progress" d="M510.4 960c-19.528-0.003-38.8-1.078-57.767-3.17l2.343 0.21 7.36-68.512c14.391 1.622 31.082 2.552 47.989 2.56h0.011c244.711 0 443.088-198.377 443.088-443.088s-198.377-443.088-443.088-443.088v0c-16.918 0.008-33.609 0.938-50.037 2.742l2.037-0.182-7.36-68.512c16.624-1.882 35.896-2.957 55.42-2.96h0.004c282.77 0 512 229.23 512 512s-229.23 512-512 512v0zM257.792 419.056c-6.886-7.858-11.086-18.22-11.086-29.563 0-13.507 5.956-25.623 15.385-33.864l0.053-0.045 205.984-179.2 290.272 452.288c4.446 6.861 7.089 15.25 7.089 24.256 0 24.876-20.166 45.041-45.041 45.041-15.87 0-29.822-8.207-37.845-20.609l-0.107-0.176-233.92-364.464-127.168 110.656c-7.889 6.875-18.273 11.066-29.636 11.066-13.519 0-25.652-5.933-33.937-15.336l-0.043-0.050zM364.976 866.816l-22.576 65.152c-39.804-13.912-74.151-30.665-106.115-50.847l2.115 1.247 36.64-58.368c25.812 16.351 55.515 30.814 86.83 41.861l3.106 0.955zM90.912 594.96l-65.152 22.88c-11.888-32.491-20.946-70.42-25.534-109.715l-0.226-2.381 68.624-7.712c4.16 36.034 11.997 68.831 23.255 99.992l-0.967-3.064zM238 13.888c29.816-18.967 64.117-35.749 100.286-48.586l3.586-1.11 22.624 65.12c-34.383 12.061-64.051 26.579-91.652 44.064l1.812-1.072zM76.064 721.312l58.368-36.8c18.715 29.257 39.298 54.677 62.374 77.59l0.026 0.026-48.656 48.816c-26.702-26.489-50.489-55.844-70.882-87.587l-1.23-2.045zM75.808 175.104c21.596-33.82 45.348-63.201 71.978-89.69l0.022-0.022 48.752 48.816c-23.093 22.969-43.676 48.419-61.329 75.929l-1.071 1.783zM68.624 398.4l-68.624-7.568c4.753-41.682 13.758-79.641 26.715-115.716l-1.115 3.556 65.184 22.784c-10.239 28.103-18.033 60.91-21.967 94.894l-0.193 2.050z" />
<glyph unicode="&#xe93c;" glyph-name="icon-rapport" d="M1024 621.168c0.002 0.366 0.003 0.798 0.003 1.231 0 67.677-27.526 128.925-71.993 173.159l-49.066 49.098c-44.533 44.44-106.005 71.92-173.896 71.92s-129.363-27.48-173.9-71.925l-43.148-43.148-43.2 43.2c-44.531 44.439-106 71.919-173.888 71.919s-129.358-27.48-173.892-71.923l-49.020-49.068c-44.516-44.505-72.051-105.994-72.051-173.914 0-68.325 27.864-130.141 72.848-174.707l0.019-0.019 39.184-38.816c-4.995-10.778-7.908-23.393-7.908-36.688 0-49.184 39.872-89.056 89.056-89.056 0.058 0 0.116 0 0.173 0h-0.009c4.55 0.122 8.899 0.559 13.146 1.293l-0.538-0.077c-0.62-3.943-0.975-8.49-0.975-13.12 0-49.043 39.757-88.8 88.8-88.8 0.101 0 0.202 0 0.302 0.001h-0.016c4.905 0.097 9.627 0.564 14.23 1.376l-0.55-0.080c-0.744-4.316-1.17-9.287-1.17-14.357 0-48.972 39.7-88.672 88.672-88.672 6.799 0 13.42 0.765 19.781 2.214l-0.595-0.114c-0.652-4.050-1.024-8.719-1.024-13.475 0-49.255 39.929-89.184 89.184-89.184 24.624 0 46.917 9.98 63.056 26.115l70.784 70.784c6.944 7.081 12.717 15.343 16.987 24.449l0.229 0.543c0.384 0 0.768-0.096 1.152-0.096 0.024 0 0.052 0 0.080 0 45.464 0 82.32 36.856 82.32 82.32v0c-0.145 3.258-0.449 6.29-0.908 9.272l0.060-0.472c2.51-0.399 5.542-0.703 8.618-0.841l0.182-0.007c45.458 0 82.311 36.847 82.32 82.303v0.001c0 2.688-0.528 5.264-0.768 7.904 3.544-0.64 7.688-1.060 11.911-1.166l0.105-0.002c45.454 0.026 82.291 36.879 82.291 82.336 0 15.687-4.387 30.349-12 42.826l0.205-0.362 42.032 41.6c44.943 44.326 72.784 105.893 72.784 173.963 0 0.092 0 0.184 0 0.276v-0.014zM155.888 334.256c-9.572 9.601-15.49 22.849-15.49 37.48s5.918 27.879 15.492 37.481l70.799 70.783c9.593 9.591 22.844 15.522 37.48 15.522 29.277 0 53.010-23.734 53.010-53.010 0-14.64-5.935-27.895-15.53-37.488l-70.784-70.784c-9.603-9.568-22.851-15.484-37.48-15.484-14.637 0-27.892 5.922-37.497 15.501l0.001-0.001zM256.592 233.456c-9.565 9.607-15.479 22.857-15.479 37.488s5.913 27.881 15.48 37.49l70.798 70.782c9.526 9.21 22.519 14.886 36.838 14.886 29.284 0 53.024-23.74 53.024-53.024 0-14.319-5.676-27.312-14.901-36.853l0.014 0.015-70.784-70.64c-9.606-9.574-22.86-15.493-37.496-15.493s-27.89 5.919-37.497 15.495l0.001-0.001zM358.288 131.76c-9.574 9.606-15.493 22.86-15.493 37.496s5.919 27.89 15.495 37.497l70.783 70.783c9.397 8.616 21.974 13.896 35.785 13.896 29.284 0 53.024-23.74 53.024-53.024 0-13.803-5.274-26.374-13.917-35.808l0.036 0.040-70.736-70.8c-9.604-9.573-22.855-15.492-37.488-15.492s-27.884 5.919-37.489 15.493l0.001-0.001zM610.624 101.952l-70.768-70.784c-9.56-9.39-22.676-15.186-37.146-15.186-29.284 0-53.024 23.74-53.024 53.024 0 14.466 5.793 27.58 15.186 37.146l70.792 70.776c9.593 9.591 22.844 15.522 37.48 15.522 29.277 0 53.010-23.734 53.010-53.010 0-14.64-5.935-27.895-15.53-37.488v0zM871.12 330.272c-8.44-8.060-19.901-13.021-32.52-13.021s-24.080 4.961-32.538 13.038l0.018-0.017-0.8-0.816c-0.736 0.8-1.264 1.712-2.032 2.48l-136.864 136.864c-3.184 2.808-7.39 4.521-11.996 4.521-10.038 0-18.176-8.138-18.176-18.176 0-4.583 1.696-8.769 4.494-11.966l-0.018 0.021 136.912-136.88c8.322-8.317 13.47-19.809 13.47-32.504s-5.148-24.187-13.47-32.504v0c-8.42-8.006-19.835-12.931-32.4-12.931-11.525 0-22.083 4.143-30.264 11.022l0.072-0.059c-0.704 0.768-1.232 1.6-1.984 2.4l-136.864 136.864c-3.336 3.674-8.131 5.972-13.462 5.972-10.029 0-18.16-8.131-18.16-18.16 0-5.356 2.318-10.17 6.006-13.494l0.016-0.014 134.608-134.608c0.549-1.022 1.143-1.902 1.814-2.716l-0.022 0.028c0.784-0.8 1.728-1.344 2.544-2.096 7.097-7.974 11.433-18.541 11.433-30.121 0-22.65-16.589-41.425-38.281-44.838l-0.257-0.033c0.005 0.338 0.007 0.737 0.007 1.136 0 49.228-39.908 89.136-89.136 89.136-0.048 0-0.095 0-0.143 0h0.007c-6.578-0.028-12.97-0.755-19.126-2.111l0.598 0.111c0.691 4.155 1.085 8.943 1.085 13.824 0 48.919-39.657 88.576-88.576 88.576-5.028 0-9.957-0.419-14.756-1.224l0.519 0.072c0.731 4.275 1.149 9.199 1.149 14.221 0 48.919-39.657 88.576-88.576 88.576-4.657 0-9.231-0.359-13.694-1.052l0.497 0.063c0.613 3.924 0.963 8.45 0.963 13.058 0 49.175-39.865 89.040-89.040 89.040-24.7 0-47.051-10.058-63.182-26.301l-0.005-0.005-67.552-67.472-34.992 34.656c-38.35 37.999-62.095 90.682-62.095 148.91 0 57.872 23.454 110.265 61.375 148.194l49.024 49.040c37.953 37.866 90.338 61.28 148.192 61.28s110.239-23.415 148.196-61.284l43.196-43.196-116.048-116.064c-16.174-16.174-26.178-38.519-26.178-63.2 0-49.362 40.016-89.378 89.378-89.378 24.681 0 47.026 10.004 63.2 26.178v0l121.6 121.6 116.032-122.784 136.864-136.848c8.256-8.32 13.359-19.78 13.359-32.432 0-12.684-5.128-24.17-13.424-32.498l0.001 0.001zM885.12 432.672l-124.8 124.8-141.344 149.728-148.064-148.064c-9.726-9.294-22.935-15.014-37.48-15.014s-27.754 5.72-37.501 15.034l0.021-0.020c-9.6 9.591-15.538 22.846-15.538 37.488s5.938 27.897 15.538 37.488v0l184.848 184.864c37.963 37.856 90.352 61.263 148.208 61.263s110.244-23.407 148.213-61.268l49.019-49.035c37.921-37.929 61.375-90.322 61.375-148.194 0-58.229-23.744-110.912-62.079-148.895l-0.016-0.016z" />
<glyph unicode="&#xe942;" glyph-name="phone" d="M704 320c-64-64-64-128-128-128s-128 64-192 128-128 128-128 192 64 64 128 128-128 256-192 256-192-192-192-192c0-128 131.5-387.5 256-512s384-256 512-256c0 0 192 128 192 192s-192 256-256 192z" />
<glyph unicode="&#xe94e;" glyph-name="clock1" d="M658.744 210.744l-210.744 210.746v282.51h128v-229.49l173.256-173.254zM512 960c-282.77 0-512-229.23-512-512s229.23-512 512-512 512 229.23 512 512-229.23 512-512 512zM512 64c-212.078 0-384 171.922-384 384s171.922 384 384 384c212.078 0 384-171.922 384-384s-171.922-384-384-384z" />
<glyph unicode="&#xe952;" glyph-name="stopwatch" d="M512.002 766.788v65.212h128v64c0 35.346-28.654 64-64.002 64h-191.998c-35.346 0-64-28.654-64-64v-64h128v-65.212c-214.798-16.338-384-195.802-384-414.788 0-229.75 186.25-416 416-416s416 186.25 416 416c0 218.984-169.202 398.448-384 414.788zM706.276 125.726c-60.442-60.44-140.798-93.726-226.274-93.726s-165.834 33.286-226.274 93.726c-60.44 60.44-93.726 140.8-93.726 226.274s33.286 165.834 93.726 226.274c58.040 58.038 134.448 91.018 216.114 93.548l-21.678-314.020c-1.86-26.29 12.464-37.802 31.836-37.802s33.698 11.512 31.836 37.802l-21.676 314.022c81.666-2.532 158.076-35.512 216.116-93.55 60.44-60.44 93.726-140.8 93.726-226.274s-33.286-165.834-93.726-226.274z" />
<glyph unicode="&#xe958;" glyph-name="mobile" d="M736 960h-448c-52.8 0-96-43.2-96-96v-832c0-52.8 43.2-96 96-96h448c52.8 0 96 43.2 96 96v832c0 52.8-43.2 96-96 96zM384 912h256v-32h-256v32zM512 0c-35.346 0-64 28.654-64 64s28.654 64 64 64 64-28.654 64-64-28.654-64-64-64zM768 192h-512v640h512v-640z" />
<glyph unicode="&#xe965;" glyph-name="undo" d="M512 896c-141.384 0-269.376-57.32-362.032-149.978l-149.968 149.978v-384h384l-143.532 143.522c69.496 69.492 165.492 112.478 271.532 112.478 212.068 0 384-171.924 384-384 0-114.696-50.292-217.636-130.018-288l84.666-96c106.302 93.816 173.352 231.076 173.352 384 0 282.77-229.23 512-512 512z" />
<glyph unicode="&#xe971;" glyph-name="user" d="M576 253.388v52.78c70.498 39.728 128 138.772 128 237.832 0 159.058 0 288-192 288s-192-128.942-192-288c0-99.060 57.502-198.104 128-237.832v-52.78c-217.102-17.748-384-124.42-384-253.388h896c0 128.968-166.898 235.64-384 253.388z" />
<glyph unicode="&#xe973;" glyph-name="user-plus" d="M384 224c0 151.234 95.874 280.486 230.032 330.2 16.28 36.538 25.968 77.164 25.968 117.8 0 159.058 0 288-192 288s-192-128.942-192-288c0-99.060 57.502-198.104 128-237.832v-52.78c-217.102-17.748-384-124.42-384-253.388h397.306c-8.664 30.53-13.306 62.732-13.306 96zM736 512c-159.058 0-288-128.942-288-288s128.942-288 288-288c159.056 0 288 128.942 288 288s-128.942 288-288 288zM896 192h-128v-128h-64v128h-128v64h128v128h64v-128h128v-64z" />
<glyph unicode="&#xe975;" glyph-name="user-check" d="M960 352l-288-288-96 96-64-64 160-160 352 352zM448 192h320v115.128c-67.22 39.2-156.308 66.11-256 74.26v52.78c70.498 39.728 128 138.772 128 237.832 0 159.058 0 288-192 288s-192-128.942-192-288c0-99.060 57.502-198.104 128-237.832v-52.78c-217.102-17.748-384-124.42-384-253.388h448v64z" />
<glyph unicode="&#xe98d;" glyph-name="key" d="M704 960c-176.73 0-320-143.268-320-320 0-20.026 1.858-39.616 5.376-58.624l-389.376-389.376v-192c0-35.346 28.654-64 64-64h64v64h128v128h128v128h128l83.042 83.042c34.010-12.316 70.696-19.042 108.958-19.042 176.73 0 320 143.268 320 320s-143.27 320-320 320zM799.874 639.874c-53.020 0-96 42.98-96 96s42.98 96 96 96 96-42.98 96-96-42.98-96-96-96z" />
<glyph unicode="&#xe9cd;" glyph-name="attachment" d="M665.832 632.952l-64.952 64.922-324.81-324.742c-53.814-53.792-53.814-141.048 0-194.844 53.804-53.792 141.060-53.792 194.874 0l389.772 389.708c89.714 89.662 89.714 235.062 0 324.726-89.666 89.704-235.112 89.704-324.782 0l-409.23-409.178c-0.29-0.304-0.612-0.576-0.876-0.846-125.102-125.096-125.102-327.856 0-452.906 125.054-125.056 327.868-125.056 452.988 0 0.274 0.274 0.516 0.568 0.82 0.876l0.032-0.034 279.332 279.292-64.986 64.92-279.33-279.262c-0.296-0.268-0.564-0.57-0.846-0.844-89.074-89.058-233.98-89.058-323.076 0-89.062 89.042-89.062 233.922 0 322.978 0.304 0.304 0.604 0.582 0.888 0.846l-0.046 0.060 409.28 409.166c53.712 53.738 141.144 53.738 194.886 0 53.712-53.734 53.712-141.148 0-194.84l-389.772-389.7c-17.936-17.922-47.054-17.922-64.972 0-17.894 17.886-17.894 47.032 0 64.92l324.806 324.782z" />
<glyph unicode="&#xea10;" glyph-name="checkmark" d="M864 832l-480-480-224 224-160-160 384-384 640 640z" />
<glyph unicode="&#xea1d;" glyph-name="pause" d="M128 832h320v-768h-320zM576 832h320v-768h-320z" />
<glyph unicode="&#xea41;" glyph-name="circle-up" d="M0 448c0-282.77 229.23-512 512-512s512 229.23 512 512-229.23 512-512 512-512-229.23-512-512zM928 448c0-229.75-186.25-416-416-416s-416 186.25-416 416 186.25 416 416 416 416-186.25 416-416zM706.744 290.744l90.512 90.512-285.256 285.254-285.254-285.256 90.508-90.508 194.746 194.744z" />
<glyph unicode="&#xea82;" glyph-name="share2" d="M864 256c-45.16 0-85.92-18.738-115.012-48.83l-431.004 215.502c1.314 8.252 2.016 16.706 2.016 25.328s-0.702 17.076-2.016 25.326l431.004 215.502c29.092-30.090 69.852-48.828 115.012-48.828 88.366 0 160 71.634 160 160s-71.634 160-160 160-160-71.634-160-160c0-8.622 0.704-17.076 2.016-25.326l-431.004-215.504c-29.092 30.090-69.852 48.83-115.012 48.83-88.366 0-160-71.636-160-160 0-88.368 71.634-160 160-160 45.16 0 85.92 18.738 115.012 48.828l431.004-215.502c-1.312-8.25-2.016-16.704-2.016-25.326 0-88.368 71.634-160 160-160s160 71.632 160 160c0 88.364-71.634 160-160 160z" />
<glyph unicode="&#xeadf;" glyph-name="file-pdf" d="M842.012 370.52c-13.648 13.446-43.914 20.566-89.972 21.172-31.178 0.344-68.702-2.402-108.17-7.928-17.674 10.198-35.892 21.294-50.188 34.658-38.462 35.916-70.568 85.772-90.576 140.594 1.304 5.12 2.414 9.62 3.448 14.212 0 0 21.666 123.060 15.932 164.666-0.792 5.706-1.276 7.362-2.808 11.796l-1.882 4.834c-5.894 13.592-17.448 27.994-35.564 27.208l-10.916 0.344c-20.202 0-36.664-10.332-40.986-25.774-13.138-48.434 0.418-120.892 24.98-214.738l-6.288-15.286c-17.588-42.876-39.63-86.060-59.078-124.158l-2.528-4.954c-20.46-40.040-39.026-74.028-55.856-102.822l-17.376-9.188c-1.264-0.668-31.044-16.418-38.028-20.644-59.256-35.38-98.524-75.542-105.038-107.416-2.072-10.17-0.53-23.186 10.014-29.212l16.806-8.458c7.292-3.652 14.978-5.502 22.854-5.502 42.206 0 91.202 52.572 158.698 170.366 77.93 25.37 166.652 46.458 244.412 58.090 59.258-33.368 132.142-56.544 178.142-56.544 8.168 0 15.212 0.78 20.932 2.294 8.822 2.336 16.258 7.368 20.792 14.194 8.926 13.432 10.734 31.932 8.312 50.876-0.72 5.622-5.21 12.574-10.068 17.32zM211.646 145.952c7.698 21.042 38.16 62.644 83.206 99.556 2.832 2.296 9.808 8.832 16.194 14.902-47.104-75.124-78.648-105.066-99.4-114.458zM478.434 760.314c13.566 0 21.284-34.194 21.924-66.254s-6.858-54.56-16.158-71.208c-7.702 24.648-11.426 63.5-11.426 88.904 0 0-0.566 48.558 5.66 48.558v0zM398.852 322.506c9.45 16.916 19.282 34.756 29.33 53.678 24.492 46.316 39.958 82.556 51.478 112.346 22.91-41.684 51.444-77.12 84.984-105.512 4.186-3.542 8.62-7.102 13.276-10.65-68.21-13.496-127.164-29.91-179.068-49.862v0zM828.902 326.348c-4.152-2.598-16.052-4.1-23.708-4.1-24.708 0-55.272 11.294-98.126 29.666 16.468 1.218 31.562 1.838 45.102 1.838 24.782 0 32.12 0.108 56.35-6.072 24.228-6.18 24.538-18.734 20.382-21.332v0zM917.806 730.924c-22.21 30.292-53.174 65.7-87.178 99.704s-69.412 64.964-99.704 87.178c-51.574 37.82-76.592 42.194-90.924 42.194h-496c-44.112 0-80-35.888-80-80v-864c0-44.112 35.886-80 80-80h736c44.112 0 80 35.888 80 80v624c0 14.332-4.372 39.35-42.194 90.924v0zM785.374 785.374c30.7-30.7 54.8-58.398 72.58-81.374h-153.954v153.946c22.982-17.78 50.678-41.878 81.374-72.572v0zM896 16c0-8.672-7.328-16-16-16h-736c-8.672 0-16 7.328-16 16v864c0 8.672 7.328 16 16 16 0 0 495.956 0.002 496 0v-224c0-17.672 14.324-32 32-32h224v-624z" />
<glyph unicode="&#xeae2;" glyph-name="file-excel" d="M743.028 576h-135.292l-95.732-141.032-95.742 141.032h-135.29l162.162-242.464-182.972-269.536h251.838v91.576h-50.156l50.156 74.994 111.396-166.57h140.444l-182.976 269.536 162.164 242.464zM917.806 730.924c-22.21 30.292-53.174 65.7-87.178 99.704s-69.412 64.964-99.704 87.178c-51.574 37.82-76.592 42.194-90.924 42.194h-496c-44.112 0-80-35.888-80-80v-864c0-44.112 35.886-80 80-80h736c44.112 0 80 35.888 80 80v624c0 14.332-4.372 39.35-42.194 90.924v0zM785.374 785.374c30.7-30.7 54.8-58.398 72.58-81.374h-153.954v153.946c22.982-17.78 50.678-41.878 81.374-72.572v0zM896 16c0-8.672-7.328-16-16-16h-736c-8.672 0-16 7.328-16 16v864c0 8.672 7.328 16 16 16 0 0 495.956 0.002 496 0v-224c0-17.672 14.324-32 32-32h224v-624z" />
<glyph unicode="&#xf04b;" glyph-name="play" horiz-adv-x="804" d="M790.856 421.144l-758.856-421.714q-13.144-7.428-22.572-1.714t-9.43 20.572v841.144q0 14.856 9.43 20.572t22.572-1.714l758.856-421.714q13.144-7.428 13.144-17.714t-13.144-17.714z" />
<glyph unicode="&#xf0c0;" glyph-name="group" horiz-adv-x="1097" d="M338.857 438.857q-92.571-2.857-151.429-73.143h-76.571q-46.857 0-78.857 23.143t-32 67.714q0 201.714 70.857 201.714 3.429 0 24.857-12t55.714-24.286 68-12.286q38.286 0 76 13.143-2.857-21.143-2.857-37.714 0-79.429 46.286-146.286zM950.857 74.857q0-68.571-41.714-108.286t-110.857-39.714h-499.429q-69.143 0-110.857 39.714t-41.714 108.286q0 30.286 2 59.143t8 62.286 15.143 62 24.571 55.714 35.429 46.286 48.857 30.571 63.714 11.429q5.714 0 24.571-12.286t41.714-27.429 61.143-27.429 77.143-12.286 77.143 12.286 61.143 27.429 41.714 27.429 24.571 12.286q34.857 0 63.714-11.429t48.857-30.571 35.429-46.286 24.571-55.714 15.143-62 8-62.286 2-59.143zM365.714 804.571q0-60.571-42.857-103.429t-103.429-42.857-103.429 42.857-42.857 103.429 42.857 103.429 103.429 42.857 103.429-42.857 42.857-103.429zM768 585.143q0-90.857-64.286-155.143t-155.143-64.286-155.143 64.286-64.286 155.143 64.286 155.143 155.143 64.286 155.143-64.286 64.286-155.143zM1097.143 456.571q0-44.571-32-67.714t-78.857-23.143h-76.571q-58.857 70.286-151.429 73.143 46.286 66.857 46.286 146.286 0 16.571-2.857 37.714 37.714-13.143 76-13.143 33.714 0 68 12.286t55.714 24.286 24.857 12q70.857 0 70.857-201.714zM1024 804.571q0-60.571-42.857-103.429t-103.429-42.857-103.429 42.857-42.857 103.429 42.857 103.429 103.429 42.857 103.429-42.857 42.857-103.429z" />
<glyph unicode="&#xf142;" glyph-name="ellipsis-v" horiz-adv-x="219" d="M219.429 237.714v-109.714q0-22.857-16-38.857t-38.857-16h-109.714q-22.857 0-38.857 16t-16 38.857v109.714q0 22.857 16 38.857t38.857 16h109.714q22.857 0 38.857-16t16-38.857zM219.429 530.286v-109.714q0-22.857-16-38.857t-38.857-16h-109.714q-22.857 0-38.857 16t-16 38.857v109.714q0 22.857 16 38.857t38.857 16h109.714q22.857 0 38.857-16t16-38.857zM219.429 822.857v-109.714q0-22.857-16-38.857t-38.857-16h-109.714q-22.857 0-38.857 16t-16 38.857v109.714q0 22.857 16 38.857t38.857 16h109.714q22.857 0 38.857-16t16-38.857z" />
<glyph unicode="&#xf1c0;" glyph-name="database" horiz-adv-x="878" d="M438.857 512q135.429 0 253.143 24.571t185.714 72.571v-97.143q0-39.429-58.857-73.143t-160-53.429-220-19.714-220 19.714-160 53.429-58.857 73.143v97.143q68-48 185.714-72.571t253.143-24.571zM438.857 73.143q135.429 0 253.143 24.571t185.714 72.571v-97.143q0-39.429-58.857-73.143t-160-53.429-220-19.714-220 19.714-160 53.429-58.857 73.143v97.143q68-48 185.714-72.571t253.143-24.571zM438.857 292.571q135.429 0 253.143 24.571t185.714 72.571v-97.143q0-39.429-58.857-73.143t-160-53.429-220-19.714-220 19.714-160 53.429-58.857 73.143v97.143q68-48 185.714-72.571t253.143-24.571zM438.857 950.857q118.857 0 220-19.714t160-53.429 58.857-73.143v-73.143q0-39.429-58.857-73.143t-160-53.429-220-19.714-220 19.714-160 53.429-58.857 73.143v73.143q0 39.429 58.857 73.143t160 53.429 220 19.714z" />
<glyph unicode="&#xf1cd;" glyph-name="life-bouy" d="M512 950.857q104 0 198.857-40.571t163.429-109.143 109.143-163.429 40.571-198.857-40.571-198.857-109.143-163.429-163.429-109.143-198.857-40.571-198.857 40.571-163.429 109.143-109.143 163.429-40.571 198.857 40.571 198.857 109.143 163.429 163.429 109.143 198.857 40.571zM512 877.714q-108.571 0-206.286-51.429l110.857-110.857q46.857 16 95.429 16t95.429-16l110.857 110.857q-97.714 51.429-206.286 51.429zM124.571 232.571l110.857 110.857q-16 46.857-16 95.429t16 95.429l-110.857 110.857q-51.429-97.714-51.429-206.286t51.429-206.286zM512 0q108.571 0 206.286 51.429l-110.857 110.857q-46.857-16-95.429-16t-95.429 16l-110.857-110.857q97.714-51.429 206.286-51.429zM512 219.428q90.857 0 155.143 64.286t64.286 155.143-64.286 155.143-155.143 64.286-155.143-64.286-64.286-155.143 64.286-155.143 155.143-64.286zM788.571 343.428l110.857-110.857q51.429 97.714 51.429 206.286t-51.429 206.286l-110.857-110.857q16-46.857 16-95.429t-16-95.429z" />
</font>
</defs>
</svg>
