<?xml version="1.0" standalone="no"?>
<!DOCTYPE svg PUBLIC "-//W3C//DTD SVG 1.1//EN" "http://www.w3.org/Graphics/SVG/1.1/DTD/svg11.dtd" >
<svg xmlns="http://www.w3.org/2000/svg">
<metadata>Generated by IcoMoon</metadata>
<defs>
<font id="icomoon" horiz-adv-x="1024">
<font-face units-per-em="1024" ascent="960" descent="-64" />
<missing-glyph horiz-adv-x="1024" />
<glyph unicode="&#x20;" horiz-adv-x="512" d="" />
<glyph unicode="&#x25;" glyph-name="percent" horiz-adv-x="881" d="M814.080 548.352q0-168.96-119.296-288.256t-287.232-119.296q-105.472 0-197.632 51.2h-6.144v3.072q-94.208 55.296-148.992 149.504t-54.784 203.776q0 117.76 64 218.112t171.52 150.528l-23.552 23.552 108.544 107.52 35.84-35.84-77.824-77.824q62.464 20.48 129.024 20.48 73.728 0 142.336-25.6l-82.944 82.944 35.84 35.84 108.544-107.52-26.624-25.6q105.472-51.2 167.424-150.528t61.952-216.064zM763.904 548.352q0 147.456-104.448 251.904t-251.904 104.448-251.904-104.448-104.448-251.904q0-87.040 40.448-164.864t112.128-128v160.768q-101.376 82.944-102.4 207.872h61.44q0-95.232 73.728-159.232t171.008-64 170.496 64 73.216 159.232h61.44q0-124.928-101.376-207.872v-160.768q70.656 50.176 111.616 128t40.96 164.864zM560.128 293.376v89.088q-45.056-24.576-97.28-32.768v-56.32h97.28zM590.848 242.176h-172.032v-50.176q93.184 3.072 172.032 50.176zM362.496 242.176v105.472q-57.344 7.168-107.52 34.816v-140.288h107.52zM560.128 624.128q0-30.72-22.528-53.248t-54.272-22.528q-30.72 0-53.248 22.528t-22.528 53.248q0 31.744 22.528 54.272t53.248 22.528q31.744 0 54.272-22.528t22.528-54.272zM407.552 675.328q0-31.744-22.528-54.272t-54.272-22.528q-30.72 0-53.248 22.528t-22.528 54.272 22.528 54.272 53.248 22.528q31.744 0 54.272-22.528t22.528-54.272z" />
<glyph unicode="&#x28;" glyph-name="parenleft" horiz-adv-x="890" d="M819.2 550.4q0-169.984-119.808-289.792t-289.792-119.808-289.792 119.808-119.808 289.792 119.808 289.792 289.792 119.808 289.792-119.808 119.808-289.792zM768 550.4q0 148.48-104.96 253.44t-253.44 104.96-253.44-104.96-104.96-253.44q0-146.432 102.4-250.88 2.048 104.448 76.8 177.664t179.2 73.216 179.2-73.216 76.8-177.664q102.4 104.448 102.4 250.88zM660.48 294.4h-46.080q0 84.992-59.904 144.896t-144.896 59.904-144.896-59.904-59.904-144.896h-46.080q104.448-102.4 250.88-102.4t250.88 102.4zM614.4 627.2q0-31.744-22.528-54.272t-54.272-22.528-54.272 22.528-22.528 54.272 22.528 54.272 54.272 22.528 54.272-22.528 22.528-54.272zM358.4 627.2q0-31.744-22.528-54.272t-54.272-22.528-54.272 22.528-22.528 54.272 22.528 54.272 54.272 22.528 54.272-22.528 22.528-54.272z" />
<glyph unicode="&#x29;" glyph-name="parenright" horiz-adv-x="890" d="M819.2 550.4q0-169.984-119.808-289.792t-289.792-119.808-289.792 119.808-119.808 289.792 119.808 289.792 289.792 119.808 289.792-119.808 119.808-289.792zM768 550.4q0 148.48-104.96 253.44t-253.44 104.96-253.44-104.96-104.96-253.44 104.96-253.44 253.44-104.96 253.44 104.96 104.96 253.44zM614.4 627.2q0-31.744-22.528-54.272t-54.272-22.528-54.272 22.528-22.528 54.272 22.528 54.272 54.272 22.528 54.272-22.528 22.528-54.272zM358.4 627.2q0-31.744-22.528-54.272t-54.272-22.528-54.272 22.528-22.528 54.272 22.528 54.272 54.272 22.528 54.272-22.528 22.528-54.272zM665.6 550.4q0-105.472-75.264-180.736t-180.736-75.264-180.736 75.264-75.264 180.736h51.2q0-84.992 59.904-144.896t144.896-59.904 144.896 59.904 59.904 144.896h51.2z" />
<glyph unicode="&#x2f;" glyph-name="slash" horiz-adv-x="890" d="M819.2 550.4q0-169.984-119.808-289.792t-289.792-119.808-289.792 119.808-119.808 289.792 119.808 289.792 289.792 119.808 289.792-119.808 119.808-289.792zM768 550.4q0 148.48-104.96 253.44t-253.44 104.96-253.44-104.96-104.96-253.44 104.96-253.44 253.44-104.96 253.44 104.96 104.96 253.44zM614.4 627.2q0-31.744-22.528-54.272t-54.272-22.528-54.272 22.528-22.528 54.272 22.528 54.272 54.272 22.528 54.272-22.528 22.528-54.272zM358.4 627.2q0-31.744-22.528-54.272t-54.272-22.528-54.272 22.528-22.528 54.272 22.528 54.272 54.272 22.528 54.272-22.528 22.528-54.272zM584.704 294.4l-25.6-44.032-354.304 204.8 25.6 44.032z" />
<glyph unicode="&#x30;" glyph-name="zero" d="M819.2 550.4q0-169.984-119.808-289.792t-289.792-119.808-289.792 119.808-119.808 289.792 119.808 289.792 289.792 119.808 289.792-119.808 119.808-289.792zM768 550.4q0 148.48-104.96 253.44t-253.44 104.96-253.44-104.96-104.96-253.44 104.96-253.44 253.44-104.96 253.44 104.96 104.96 253.44z" />
<glyph unicode="&#x31;" glyph-name="one" d="M819.2 550.4q0-169.984-119.808-289.792t-289.792-119.808-289.792 119.808-119.808 289.792 119.808 289.792 289.792 119.808 289.792-119.808 119.808-289.792zM768 550.4q0 148.48-104.96 253.44t-253.44 104.96-253.44-104.96-104.96-253.44 104.96-253.44 253.44-104.96 253.44 104.96 104.96 253.44zM614.4 644.608q0-31.744-22.528-54.272t-54.272-22.528-54.272 22.528-22.528 54.272q0 28.672 19.456 51.2l-10.24 10.24 108.544 108.544 35.84-35.84-59.392-59.392q25.6-6.144 42.496-27.136t16.896-47.616zM358.4 644.608q0-31.744-22.528-54.272t-54.272-22.528-54.272 22.528-22.528 54.272q0 26.624 16.896 47.616t42.496 27.136l-50.176 51.2 35.84 35.84 108.544-108.544-12.288-12.288q12.288-18.432 12.288-40.96zM665.6 499.2q0-105.472-75.264-180.736t-180.736-75.264-180.736 75.264-75.264 180.736h512zM608.256 448h-45.056l-51.2-102.4-51.2 102.4h-102.4l-51.2-102.4-51.2 102.4h-45.056q17.408-67.584 73.216-110.592t125.44-43.008 125.44 43.008 73.216 110.592z" />
<glyph unicode="&#x33;" glyph-name="three" d="M819.2 550.4q0-169.984-119.808-289.792t-289.792-119.808-289.792 119.808-119.808 289.792 119.808 289.792 289.792 119.808 289.792-119.808 119.808-289.792zM768 550.4q0 148.48-104.96 253.44t-253.44 104.96-253.44-104.96-104.96-253.44q0-146.432 102.4-250.88 2.048 104.448 76.8 177.664t179.2 73.216 179.2-73.216 76.8-177.664q102.4 104.448 102.4 250.88zM561.152 431.616q-60.416 67.584-151.552 67.584t-151.552-67.584h303.104zM614.4 294.4q0 34.816-11.264 67.584h-387.072q-11.264-32.768-11.264-67.584h409.6zM593.92 243.2h-368.64q84.992-51.2 184.32-51.2t184.32 51.2zM614.4 627.2q0-31.744-22.528-54.272t-54.272-22.528-54.272 22.528-22.528 54.272q0 32.768 23.552 55.296l-14.336 15.36 108.544 108.544 35.84-35.84-66.56-67.584q27.648-3.072 47.104-25.088t19.456-50.688zM358.4 627.2q0-31.744-22.528-54.272t-54.272-22.528-54.272 22.528-22.528 54.272q0 30.72 22.016 53.248t52.736 23.552l-65.536 66.56 35.84 35.84 108.544-108.544-19.456-19.456q19.456-22.528 19.456-51.2z" />
<glyph unicode="&#x34;" glyph-name="four" d="M819.2 550.4q0-169.984-120.32-289.792t-289.28-119.808q-154.624 0-270.336 102.4h-3.072v2.048q-136.192 121.856-136.192 305.152 0 169.984 119.808 289.792t289.792 119.808 289.792-119.808 119.808-289.792zM621.568 396.8v51.2h-58.368v-51.2h58.368zM768 550.4q0 148.48-104.96 253.44t-253.44 104.96-253.44-104.96-104.96-253.44q0-146.432 102.4-250.88v199.68h512v-199.68q102.4 104.448 102.4 250.88zM621.568 294.4v51.2h-58.368v-51.2h58.368zM512 396.8v51.2h-75.776v-51.2h75.776zM512 294.4v51.2h-75.776v-51.2h75.776zM392.192 396.8v51.2h-84.992v-51.2h84.992zM392.192 294.4v51.2h-84.992v-51.2h84.992zM256 396.8v51.2h-58.368v-51.2h58.368zM593.92 243.2h-368.64q84.992-51.2 184.32-51.2t184.32 51.2zM256 294.4v51.2h-58.368v-51.2h58.368zM614.4 627.2q0-31.744-22.528-54.272t-54.272-22.528-54.272 22.528-22.528 54.272q0 32.768 23.552 55.296l-14.336 15.36 108.544 108.544 35.84-35.84-66.56-67.584q27.648-3.072 47.104-25.088t19.456-50.688zM358.4 627.2q0-31.744-22.528-54.272t-54.272-22.528-54.272 22.528-22.528 54.272q0 30.72 22.016 53.248t52.736 23.552l-65.536 66.56 35.84 35.84 108.544-108.544-19.456-19.456q19.456-22.528 19.456-51.2z" />
<glyph unicode="&#x35;" glyph-name="five" d="M819.2 550.4q0-169.984-119.808-289.792t-289.792-119.808-289.792 119.808-119.808 289.792 119.808 289.792 289.792 119.808 289.792-119.808 119.808-289.792zM768 550.4q0 148.48-104.96 253.44t-253.44 104.96-253.44-104.96-104.96-253.44 104.96-253.44 253.44-104.96 253.44 104.96 104.96 253.44zM614.4 627.2q0-31.744-22.528-54.272t-54.272-22.528-54.272 22.528-22.528 54.272q0 32.768 23.552 55.296l-14.336 15.36 108.544 108.544 35.84-35.84-66.56-67.584q27.648-3.072 47.104-25.088t19.456-50.688zM358.4 627.2q0-31.744-22.528-54.272t-54.272-22.528-54.272 22.528-22.528 54.272q0 30.72 22.016 53.248t52.736 23.552l-65.536 66.56 35.84 35.84 108.544-108.544-19.456-19.456q19.456-22.528 19.456-51.2zM665.6 448h-51.2l-51.2-102.4-51.2 102.4h-204.8l-51.2-102.4-51.2 102.4h-51.2v51.2h512v-51.2z" />
<glyph unicode="&#x36;" glyph-name="six" horiz-adv-x="888" d="M815.104 548.352q0-168.96-119.296-288.256t-288.256-119.296-288.256 119.296-119.296 288.256q0 154.624 102.4 269.312v240.64l167.936-125.952q66.56 23.552 137.216 23.552 66.56 0 130.048-20.48l184.32 122.88-13.312-234.496q106.496-116.736 106.496-275.456zM764.928 548.352q0 147.456-104.96 252.416t-252.416 104.96-251.904-104.96-104.448-252.416 104.448-251.904 251.904-104.448 252.416 104.448 104.96 251.904zM611.328 625.152q0-31.744-22.528-54.272t-53.248-22.528q-31.744 0-54.272 22.528t-22.528 54.272q0 32.768 23.552 55.296l-14.336 15.36 107.52 107.52 35.84-35.84-66.56-66.56q28.672-4.096 47.616-25.6t18.944-50.176zM356.352 625.152q0-31.744-22.528-54.272t-53.248-22.528q-31.744 0-54.272 22.528t-22.528 54.272q0 30.72 22.016 53.248t52.736 22.528l-65.536 66.56 35.84 35.84 107.52-107.52-19.456-19.456q19.456-22.528 19.456-51.2zM662.528 446.976h-51.2l-50.176-102.4-51.2 102.4h-203.776l-51.2-102.4-51.2 102.4h-51.2v50.176h509.952v-50.176z" />
<glyph unicode="&#x37;" glyph-name="seven" horiz-adv-x="886" d="M811.008 546.304q0-167.936-118.784-286.72t-286.72-118.784-286.72 118.784-118.784 286.72q0 175.104 126.976 294.912-126.976 44.032-126.976 110.592 0 79.872 168.96 122.88 118.784 29.696 236.544 29.696t236.544-29.696q168.96-43.008 168.96-122.88 0-66.56-126.976-110.592 126.976-119.808 126.976-294.912zM760.832 951.808q0 54.272-153.6 82.944-103.424 18.432-201.728 18.432-97.28 0-200.704-18.432-153.6-28.672-153.6-82.944 0-46.080 118.784-75.776 105.472 75.776 235.52 75.776t235.52-75.776q119.808 29.696 119.808 75.776zM568.32 861.696q-76.8 39.936-162.816 39.936t-162.816-39.936q76.8-11.264 162.816-11.264t162.816 11.264zM760.832 546.304q0 80.896-35.84 154.112t-99.328 124.416q-100.352-24.576-220.16-24.576t-220.16 24.576q-63.488-51.2-98.816-124.416t-35.328-154.112q0-146.432 103.936-250.368t250.368-103.936q147.456 0 251.392 103.936t103.936 250.368zM608.256 622.080q0-30.72-22.528-53.248t-53.248-22.528q-31.744 0-53.76 22.528t-22.016 53.248q0 31.744 22.016 54.272t53.76 22.528q30.72 0 53.248-22.528t22.528-54.272zM355.328 622.080q0-30.72-22.528-53.248t-54.272-22.528q-30.72 0-53.248 22.528t-22.528 53.248q0 31.744 22.528 54.272t53.248 22.528q31.744 0 54.272-22.528t22.528-54.272zM659.456 546.304q0-104.448-74.752-178.688t-179.2-74.24-178.688 74.24-74.24 178.688h50.176q0-83.968 59.392-143.36t143.36-59.392 143.36 59.392 59.392 143.36h51.2z" />
<glyph unicode="&#x38;" glyph-name="eight" d="M819.2 550.4q0-169.984-119.808-289.792t-289.792-119.808-289.792 119.808-119.808 289.792 119.808 289.792 289.792 119.808 289.792-119.808 119.808-289.792zM768 550.4q0 148.48-104.96 253.44t-253.44 104.96-253.44-104.96-104.96-253.44 104.96-253.44 253.44-104.96 253.44 104.96 104.96 253.44zM665.6 550.4q0-105.472-75.264-180.736t-180.736-75.264-180.736 75.264-75.264 180.736h25.6q-25.6 33.792-25.6 76.8 0 53.248 37.376 90.624t90.624 37.376 90.624-37.376 37.376-90.624q0 53.248 37.376 90.624t90.624 37.376 90.624-37.376 37.376-90.624q0-43.008-25.6-76.8h25.6zM601.088 627.2q0 26.624-18.432 45.056t-45.056 18.432-45.568-18.432-18.944-45.056 18.944-45.568 45.568-18.944 45.056 18.944 18.432 45.568zM345.088 627.2q0 26.624-18.432 45.056t-45.056 18.432-45.568-18.432-18.944-45.056 18.944-45.568 45.568-18.944 45.056 18.944 18.432 45.568zM612.352 523.776q-33.792-24.576-74.752-24.576-53.248 0-90.624 37.376t-37.376 90.624q0-53.248-37.376-90.624t-90.624-37.376q-40.96 0-74.752 24.576 10.24-76.8 68.096-127.488t134.656-50.688 134.656 50.688 68.096 127.488z" />
<glyph unicode="&#x39;" glyph-name="nine" horiz-adv-x="891" d="M818.176 550.4q0-169.984-119.808-289.792t-288.768-119.808q-169.984 0-289.792 119.808t-119.808 289.792q0 154.624 102.4 270.336v240.64l167.936-125.952q67.584 23.552 139.264 23.552 66.56 0 130.048-21.504l184.32 123.904-12.288-235.52q106.496-116.736 106.496-275.456zM766.976 550.4q0 147.456-104.96 252.416t-252.416 104.96q-148.48 0-253.44-104.96t-104.96-252.416q0-148.48 104.96-253.44t253.44-104.96q147.456 0 252.416 104.96t104.96 253.44zM613.376 627.2q0-31.744-22.528-54.272t-53.248-22.528q-31.744 0-54.272 22.528t-22.528 54.272q0 32.768 23.552 55.296l-15.36 14.336 108.544 108.544 35.84-35.84-66.56-66.56q28.672-4.096 47.616-25.6t18.944-50.176zM358.4 627.2q0-31.744-22.528-54.272t-54.272-22.528-54.272 22.528-22.528 54.272q0 30.72 22.016 53.248t52.736 22.528l-66.56 66.56 36.864 35.84 108.544-108.544-19.456-19.456q19.456-21.504 19.456-50.176zM664.576 550.4q0-105.472-74.752-180.736t-180.224-75.264q-106.496 0-181.248 75.264t-74.752 180.736h51.2q0-84.992 59.904-144.896t144.896-59.904q83.968 0 143.872 59.904t59.904 144.896h51.2z" />
<glyph unicode="&#x3b;" glyph-name="semicolon" horiz-adv-x="890" d="M819.2 550.4q0-169.984-119.808-289.792t-289.792-119.808-289.792 119.808-119.808 289.792 119.808 289.792 289.792 119.808 289.792-119.808 119.808-289.792zM768 550.4q0 148.48-104.96 253.44t-253.44 104.96-253.44-104.96-104.96-253.44 104.96-253.44 253.44-104.96 253.44 104.96 104.96 253.44zM614.4 627.2q0-31.744-22.528-54.272t-54.272-22.528-54.272 22.528-22.528 54.272 22.528 54.272 54.272 22.528 54.272-22.528 22.528-54.272zM358.4 601.6h-153.6v51.2h153.6v-51.2zM665.6 550.4q0-105.472-75.264-180.736t-180.736-75.264-180.736 75.264-75.264 180.736h51.2q0-84.992 59.904-144.896t144.896-59.904 144.896 59.904 59.904 144.896h51.2z" />
<glyph unicode="&#x42;" glyph-name="B" d="M819.2 550.4q0-169.984-119.808-289.792t-289.792-119.808-289.792 119.808-119.808 289.792q0 105.472 51.2 198.656v6.144h4.096q54.272 95.232 149.504 150.016t204.8 54.784 204.8-54.784 149.504-150.016h4.096v-6.144q51.2-93.184 51.2-198.656zM703.488 755.2q-50.176 71.68-128.512 112.64t-165.376 40.96-165.376-40.96-128.512-112.64h587.776zM768 550.4q0 80.896-34.816 153.6h-67.584v-51.2q0-46.080-41.984-75.776-37.888-26.624-86.016-26.624t-86.016 26.624q-41.984 29.696-41.984 75.776 0-46.080-41.984-75.776-37.888-26.624-86.016-26.624t-86.016 26.624q-41.984 29.696-41.984 75.776v51.2h-67.584q-34.816-72.704-34.816-153.6 0-148.48 104.96-253.44t253.44-104.96 253.44 104.96 104.96 253.44zM665.6 550.4q0-105.472-75.264-180.736t-180.736-75.264-180.736 75.264-75.264 180.736h51.2q0-84.992 59.904-144.896t144.896-59.904 144.896 59.904 59.904 144.896h51.2z" />
<glyph unicode="&#x43;" glyph-name="C" horiz-adv-x="890" d="M819.2 550.4q0-169.984-119.808-289.792t-289.792-119.808-289.792 119.808-119.808 289.792 119.808 289.792 289.792 119.808 289.792-119.808 119.808-289.792zM768 550.4q0 148.48-104.96 253.44t-253.44 104.96-253.44-104.96-104.96-253.44 104.96-253.44 253.44-104.96 253.44 104.96 104.96 253.44zM614.4 627.2q0-31.744-22.528-54.272t-54.272-22.528-54.272 22.528-22.528 54.272 22.528 54.272 54.272 22.528 54.272-22.528 22.528-54.272zM358.4 627.2q0-31.744-22.528-54.272t-54.272-22.528-54.272 22.528-22.528 54.272 22.528 54.272 54.272 22.528 54.272-22.528 22.528-54.272zM614.4 396.8h-409.6v51.2h409.6v-51.2z" />
<glyph unicode="&#x44;" glyph-name="D" horiz-adv-x="890" d="M819.2 550.4q0-169.984-119.808-289.792t-289.792-119.808-289.792 119.808-119.808 289.792 119.808 289.792 289.792 119.808 289.792-119.808 119.808-289.792zM768 550.4q0 148.48-104.96 253.44t-253.44 104.96-253.44-104.96-104.96-253.44 104.96-253.44 253.44-104.96 253.44 104.96 104.96 253.44zM614.4 644.608q0-31.744-22.528-54.272t-54.272-22.528-54.272 22.528-22.528 54.272q0 30.72 22.528 53.76t54.272 23.040 54.272-23.040 22.528-53.76zM358.4 644.608q0-31.744-22.528-54.272t-54.272-22.528-54.272 22.528-22.528 54.272q0 30.72 22.528 53.76t54.272 23.040 54.272-23.040 22.528-53.76zM665.6 516.608q0-106.496-75.264-181.248t-180.736-74.752-180.736 74.752-75.264 181.248h512zM608.256 465.408h-397.312q17.408-67.584 73.216-110.592t125.44-43.008 125.44 43.008 73.216 110.592z" />
<glyph unicode="&#x45;" glyph-name="E" horiz-adv-x="890" d="M819.2 550.4q0-169.984-119.808-289.792t-289.792-119.808-289.792 119.808-119.808 289.792 119.808 289.792 289.792 119.808 289.792-119.808 119.808-289.792zM768 550.4q0 148.48-104.96 253.44t-253.44 104.96-253.44-104.96-104.96-253.44 104.96-253.44 253.44-104.96 253.44 104.96 104.96 253.44zM614.4 627.2q0-31.744-22.528-54.272t-54.272-22.528-54.272 22.528-22.528 54.272 22.528 54.272 54.272 22.528 54.272-22.528 22.528-54.272zM358.4 627.2q0-31.744-22.528-54.272t-54.272-22.528-54.272 22.528-22.528 54.272 22.528 54.272 54.272 22.528 54.272-22.528 22.528-54.272zM614.4 396.8q0-53.248-24.576-99.328-28.672-54.272-77.824-54.272t-77.824 54.272q-24.576 46.080-24.576 99.328h-204.8v51.2h409.6v-51.2zM563.2 396.8h-102.4q0-28.672 12.288-61.44 16.384-40.96 38.912-40.96t38.912 40.96q12.288 32.768 12.288 61.44z" />
<glyph unicode="&#x46;" glyph-name="F" horiz-adv-x="890" d="M819.2 550.4q0-169.984-119.808-289.792t-289.792-119.808-289.792 119.808-119.808 289.792 119.808 289.792 289.792 119.808 289.792-119.808 119.808-289.792zM768 550.4q0 148.48-104.96 253.44t-253.44 104.96-253.44-104.96-104.96-253.44 104.96-253.44 253.44-104.96 253.44 104.96 104.96 253.44zM614.4 627.2q0-31.744-22.528-54.272t-54.272-22.528-54.272 22.528-22.528 54.272 22.528 54.272 54.272 22.528 54.272-22.528 22.528-54.272zM358.4 627.2q0-31.744-22.528-54.272t-54.272-22.528-54.272 22.528-22.528 54.272 22.528 54.272 54.272 22.528 54.272-22.528 22.528-54.272zM563.2 396.8h-51.2q0-53.248-24.576-99.328-28.672-54.272-77.824-54.272t-77.824 54.272q-24.576 46.080-24.576 99.328h-51.2v51.2h307.2v-51.2zM460.8 396.8h-102.4q0-28.672 12.288-61.44 16.384-40.96 38.912-40.96t38.912 40.96q12.288 32.768 12.288 61.44z" />
<glyph unicode="&#x47;" glyph-name="G" d="M819.2 550.4q0-169.984-119.808-289.792t-289.792-119.808-289.792 119.808-119.808 289.792 119.808 289.792 289.792 119.808 289.792-119.808 119.808-289.792zM768 550.4q0 148.48-104.96 253.44t-253.44 104.96-253.44-104.96-104.96-253.44 104.96-253.44 253.44-104.96 253.44 104.96 104.96 253.44zM614.4 627.2q0-31.744-22.528-54.272t-54.272-22.528-54.272 22.528-22.528 54.272 22.528 54.272 54.272 22.528 54.272-22.528 22.528-54.272zM358.4 627.2q0-31.744-22.528-54.272t-54.272-22.528-54.272 22.528-22.528 54.272 22.528 54.272 54.272 22.528 54.272-22.528 22.528-54.272zM614.4 448l-354.304-204.8-25.6 44.032 354.304 204.8z" />
<glyph unicode="&#x48;" glyph-name="H" horiz-adv-x="890" d="M819.2 550.4q0-169.984-119.808-289.792t-289.792-119.808-289.792 119.808-119.808 289.792 119.808 289.792 289.792 119.808 289.792-119.808 119.808-289.792zM768 550.4q0 148.48-104.96 253.44t-253.44 104.96-253.44-104.96-104.96-253.44 104.96-253.44 253.44-104.96 253.44 104.96 104.96 253.44zM614.4 627.2q0-31.744-22.528-54.272t-54.272-22.528-54.272 22.528-22.528 54.272 22.528 54.272 54.272 22.528 54.272-22.528 22.528-54.272zM358.4 601.6h-153.6v51.2h153.6v-51.2zM665.6 550.4q0-105.472-75.264-180.736t-180.736-75.264-180.736 75.264-75.264 180.736h51.2q0-84.992 59.904-144.896t144.896-59.904 144.896 59.904 59.904 144.896h51.2z" />
<glyph unicode="&#x49;" glyph-name="I" horiz-adv-x="890" d="M819.2 550.4q0-169.984-119.808-289.792t-289.792-119.808-289.792 119.808-119.808 289.792 119.808 289.792 289.792 119.808 289.792-119.808 119.808-289.792zM768 550.4q0 148.48-104.96 253.44t-253.44 104.96-253.44-104.96-104.96-253.44q0-146.432 102.4-250.88 2.048 104.448 76.8 177.664t179.2 73.216 179.2-73.216 76.8-177.664q102.4 104.448 102.4 250.88zM660.48 294.4h-46.080q0 84.992-59.904 144.896t-144.896 59.904-144.896-59.904-59.904-144.896h-46.080q104.448-102.4 250.88-102.4t250.88 102.4zM614.4 627.2q0-31.744-22.528-54.272t-54.272-22.528-54.272 22.528-22.528 54.272 22.528 54.272 54.272 22.528 54.272-22.528 22.528-54.272zM358.4 601.6h-153.6v51.2h153.6v-51.2z" />
<glyph unicode="&#x4a;" glyph-name="J" horiz-adv-x="890" d="M819.2 550.4q0-169.984-119.808-289.792t-289.792-119.808-289.792 119.808-119.808 289.792 119.808 289.792 289.792 119.808 289.792-119.808 119.808-289.792zM768 550.4q0 148.48-104.96 253.44t-253.44 104.96-253.44-104.96-104.96-253.44 104.96-253.44 253.44-104.96 253.44 104.96 104.96 253.44zM614.4 627.2q0-31.744-22.528-54.272t-54.272-22.528-54.272 22.528-22.528 54.272 22.528 54.272 54.272 22.528 54.272-22.528 22.528-54.272zM358.4 601.6h-153.6v51.2h153.6v-51.2zM614.4 396.8h-409.6v51.2h409.6v-51.2z" />
<glyph unicode="&#x4b;" glyph-name="K" horiz-adv-x="890" d="M819.2 550.4q0-169.984-119.808-289.792t-289.792-119.808-289.792 119.808-119.808 289.792 119.808 289.792 289.792 119.808 289.792-119.808 119.808-289.792zM768 550.4q0 148.48-104.96 253.44t-253.44 104.96-253.44-104.96-104.96-253.44 104.96-253.44 253.44-104.96 253.44 104.96 104.96 253.44zM614.4 644.608q0-31.744-22.528-54.272t-54.272-22.528-54.272 22.528-22.528 54.272q0 30.72 22.528 53.76t54.272 23.040 54.272-23.040 22.528-53.76zM358.4 619.008h-153.6v51.2h153.6v-51.2zM665.6 499.2q0-105.472-75.264-180.736t-180.736-75.264-180.736 75.264-75.264 180.736h512zM608.256 448h-397.312q17.408-67.584 73.216-110.592t125.44-43.008 125.44 43.008 73.216 110.592z" />
<glyph unicode="&#x4c;" glyph-name="L" horiz-adv-x="890" d="M819.2 550.4q0-169.984-119.808-289.792t-289.792-119.808-289.792 119.808-119.808 289.792 119.808 289.792 289.792 119.808 289.792-119.808 119.808-289.792zM768 550.4q0 148.48-104.96 253.44t-253.44 104.96-253.44-104.96-104.96-253.44 104.96-253.44 253.44-104.96 253.44 104.96 104.96 253.44zM614.4 627.2q0-31.744-22.528-54.272t-54.272-22.528-54.272 22.528-22.528 54.272 22.528 54.272 54.272 22.528 54.272-22.528 22.528-54.272zM358.4 601.6h-153.6v51.2h153.6v-51.2zM614.4 396.8q0-53.248-24.576-99.328-28.672-54.272-77.824-54.272t-77.824 54.272q-24.576 46.080-24.576 99.328h-204.8v51.2h409.6v-51.2zM563.2 396.8h-102.4q0-28.672 12.288-61.44 16.384-40.96 38.912-40.96t38.912 40.96q12.288 32.768 12.288 61.44z" />
<glyph unicode="&#x4d;" glyph-name="M" horiz-adv-x="890" d="M819.2 550.4q0-169.984-119.808-289.792t-289.792-119.808-289.792 119.808-119.808 289.792 119.808 289.792 289.792 119.808 289.792-119.808 119.808-289.792zM768 550.4q0 148.48-104.96 253.44t-253.44 104.96-253.44-104.96-104.96-253.44 104.96-253.44 253.44-104.96 253.44 104.96 104.96 253.44zM614.4 627.2q0-31.744-22.528-54.272t-54.272-22.528-54.272 22.528-22.528 54.272 22.528 54.272 54.272 22.528 54.272-22.528 22.528-54.272zM358.4 601.6h-153.6v51.2h153.6v-51.2zM563.2 396.8h-51.2q0-53.248-24.576-99.328-28.672-54.272-77.824-54.272t-77.824 54.272q-24.576 46.080-24.576 99.328h-51.2v51.2h307.2v-51.2zM460.8 396.8h-102.4q0-28.672 12.288-61.44 16.384-40.96 38.912-40.96t38.912 40.96q12.288 32.768 12.288 61.44z" />
<glyph unicode="&#x4f;" glyph-name="O" horiz-adv-x="890" d="M819.2 550.4q0-169.984-119.808-289.792t-289.792-119.808-289.792 119.808-119.808 289.792 119.808 289.792 289.792 119.808 289.792-119.808 119.808-289.792zM768 550.4q0 148.48-104.96 253.44t-253.44 104.96-253.44-104.96-104.96-253.44 104.96-253.44 253.44-104.96 253.44 104.96 104.96 253.44zM614.4 627.2q0-31.744-22.528-54.272t-54.272-22.528-54.272 22.528-22.528 54.272q0 28.672 19.456 51.2l-19.456 19.456 108.544 108.544 35.84-35.84-65.536-66.56q30.72-1.024 52.736-23.552t22.016-53.248zM349.184 697.856l-35.84-35.84-108.544 108.544 35.84 35.84zM358.4 601.6h-153.6v51.2h153.6v-51.2zM665.6 550.4q0-105.472-75.264-180.736t-180.736-75.264-180.736 75.264-75.264 180.736h51.2q0-84.992 59.904-144.896t144.896-59.904 144.896 59.904 59.904 144.896h51.2z" />
<glyph unicode="&#x50;" glyph-name="P" horiz-adv-x="890" d="M819.2 550.4q0-169.984-119.808-289.792t-289.792-119.808-289.792 119.808-119.808 289.792 119.808 289.792 289.792 119.808 289.792-119.808 119.808-289.792zM768 550.4q0 148.48-104.96 253.44t-253.44 104.96-253.44-104.96-104.96-253.44q0-146.432 102.4-250.88 2.048 104.448 76.8 177.664t179.2 73.216 179.2-73.216 76.8-177.664q102.4 104.448 102.4 250.88zM660.48 294.4h-46.080q0 84.992-59.904 144.896t-144.896 59.904-144.896-59.904-59.904-144.896h-46.080q104.448-102.4 250.88-102.4t250.88 102.4zM614.4 627.2q0-31.744-22.528-54.272t-54.272-22.528-54.272 22.528-22.528 54.272q0 28.672 19.456 51.2l-19.456 19.456 108.544 108.544 35.84-35.84-65.536-66.56q30.72-1.024 52.736-23.552t22.016-53.248zM349.184 697.856l-35.84-35.84-108.544 108.544 35.84 35.84zM358.4 601.6h-153.6v51.2h153.6v-51.2z" />
<glyph unicode="&#x51;" glyph-name="Q" horiz-adv-x="890" d="M819.2 550.4q0-169.984-119.808-289.792t-289.792-119.808-289.792 119.808-119.808 289.792 119.808 289.792 289.792 119.808 289.792-119.808 119.808-289.792zM768 550.4q0 148.48-104.96 253.44t-253.44 104.96-253.44-104.96-104.96-253.44 104.96-253.44 253.44-104.96 253.44 104.96 104.96 253.44zM614.4 627.2q0-31.744-22.528-54.272t-54.272-22.528-54.272 22.528-22.528 54.272q0 27.648 19.456 51.2l-19.456 19.456 108.544 108.544 35.84-35.84-65.536-66.56q30.72-1.024 52.736-23.552t22.016-53.248zM349.184 697.856l-35.84-35.84-108.544 108.544 35.84 35.84zM358.4 601.6h-153.6v51.2h153.6v-51.2zM614.4 396.8h-409.6v51.2h409.6v-51.2z" />
<glyph unicode="&#x52;" glyph-name="R" horiz-adv-x="890" d="M819.2 550.4q0-169.984-119.808-289.792t-289.792-119.808-289.792 119.808-119.808 289.792 119.808 289.792 289.792 119.808 289.792-119.808 119.808-289.792zM768 550.4q0 148.48-104.96 253.44t-253.44 104.96-253.44-104.96-104.96-253.44 104.96-253.44 253.44-104.96 253.44 104.96 104.96 253.44zM614.4 627.2q0-31.744-22.528-54.272t-54.272-22.528-54.272 22.528-22.528 54.272q0 32.768 23.552 55.296l-14.336 15.36 108.544 108.544 35.84-35.84-66.56-67.584q27.648-3.072 47.104-25.088t19.456-50.688zM358.4 697.856l-35.84-35.84-108.544 108.544 35.84 35.84zM358.4 601.6h-153.6v51.2h153.6v-51.2zM665.6 499.2q0-105.472-75.264-180.736t-180.736-75.264-180.736 75.264-75.264 180.736h512zM608.256 448h-397.312q17.408-67.584 73.216-110.592t125.44-43.008 125.44 43.008 73.216 110.592z" />
<glyph unicode="&#x53;" glyph-name="S" horiz-adv-x="890" d="M819.2 550.4q0-169.984-119.808-289.792t-289.792-119.808-289.792 119.808-119.808 289.792 119.808 289.792 289.792 119.808 289.792-119.808 119.808-289.792zM768 550.4q0 148.48-104.96 253.44t-253.44 104.96-253.44-104.96-104.96-253.44 104.96-253.44 253.44-104.96 253.44 104.96 104.96 253.44zM605.184 592.384l-35.84-35.84-35.84 35.84-36.864-35.84-35.84 35.84 35.84 36.864-35.84 35.84 35.84 35.84 36.864-35.84 35.84 35.84 35.84-35.84-35.84-35.84zM349.184 595.456l-35.84-35.84-35.84 35.84-36.864-35.84-35.84 35.84 35.84 35.84-35.84 36.864 35.84 35.84 36.864-35.84 35.84 35.84 35.84-35.84-35.84-36.864zM614.4 396.8q0-53.248-24.576-99.328-28.672-54.272-77.824-54.272t-77.824 54.272q-24.576 46.080-24.576 99.328h-204.8v51.2h409.6v-51.2zM563.2 396.8h-102.4q0-28.672 12.288-61.44 16.384-40.96 38.912-40.96t38.912 40.96q12.288 32.768 12.288 61.44z" />
<glyph unicode="&#x54;" glyph-name="T" horiz-adv-x="890" d="M819.2 550.4q0-169.984-119.808-289.792t-289.792-119.808-289.792 119.808-119.808 289.792 119.808 289.792 289.792 119.808 289.792-119.808 119.808-289.792zM768 550.4q0 148.48-104.96 253.44t-253.44 104.96-253.44-104.96-104.96-253.44 104.96-253.44 253.44-104.96 253.44 104.96 104.96 253.44zM614.4 627.2q0-31.744-22.528-54.272t-54.272-22.528-54.272 22.528-22.528 54.272q0 32.768 23.552 55.296l-14.336 15.36 108.544 108.544 35.84-35.84-66.56-67.584q27.648-3.072 47.104-25.088t19.456-50.688zM358.4 627.2q0-31.744-22.528-54.272t-54.272-22.528-54.272 22.528-22.528 54.272q0 28.672 19.456 50.688t48.128 25.088l-58.368 59.392 35.84 35.84 108.544-108.544-15.36-16.384q15.36-20.48 15.36-46.080zM563.2 396.8h-51.2q0-53.248-24.576-99.328-28.672-54.272-77.824-54.272t-77.824 54.272q-24.576 46.080-24.576 99.328h-51.2v51.2h307.2v-51.2zM460.8 396.8h-102.4q0-28.672 12.288-61.44 16.384-40.96 38.912-40.96t38.912 40.96q12.288 32.768 12.288 61.44z" />
<glyph unicode="&#x55;" glyph-name="U" horiz-adv-x="890" d="M819.2 550.4q0-169.984-119.808-289.792t-289.792-119.808-289.792 119.808-119.808 289.792 119.808 289.792 289.792 119.808 289.792-119.808 119.808-289.792zM768 550.4q0 148.48-104.96 253.44t-253.44 104.96-253.44-104.96-104.96-253.44 104.96-253.44 253.44-104.96 253.44 104.96 104.96 253.44zM716.8 624.128q0-52.224-37.888-88.576t-90.112-36.352-90.112 36.352-37.888 88.576 37.888 88.576 90.112 36.352 90.112-36.352 37.888-88.576zM505.856 448h-192.512v51.2h192.512v-51.2zM307.2 576q0-31.744-22.528-54.272t-54.272-22.528-54.272 22.528-22.528 54.272 22.528 54.272 54.272 22.528 54.272-22.528 22.528-54.272zM652.288 624.128q0 26.624-18.944 44.544t-44.544 17.92-45.056-17.92-19.456-44.544q0-25.6 19.456-44.032t45.056-18.432 44.544 18.432 18.944 44.032zM268.288 576q0 15.36-11.264 26.624t-26.624 11.264-27.136-11.264-11.776-26.624 11.776-27.136 27.136-11.776 26.624 11.776 11.264 27.136z" />
<glyph unicode="&#x56;" glyph-name="V" d="M819.2 550.4q0-169.984-119.808-289.792t-289.792-119.808-289.792 119.808-119.808 289.792 119.808 289.792 289.792 119.808 289.792-119.808 119.808-289.792zM768 550.4q0 148.48-104.96 253.44t-253.44 104.96-253.44-104.96-104.96-253.44 104.96-253.44 253.44-104.96 253.44 104.96 104.96 253.44zM614.4 627.2q0-31.744-22.528-54.272t-54.272-22.528-54.272 22.528-22.528 54.272q0 32.768 23.552 55.296l-14.336 15.36 108.544 108.544 35.84-35.84-66.56-67.584q27.648-3.072 47.104-25.088t19.456-50.688zM358.4 627.2q0-31.744-22.528-54.272t-54.272-22.528-54.272 22.528-22.528 54.272q0 30.72 22.016 53.248t52.736 23.552l-65.536 66.56 35.84 35.84 108.544-108.544-19.456-19.456q19.456-22.528 19.456-51.2zM665.6 550.4q0-105.472-75.264-180.736t-180.736-75.264-180.736 75.264-75.264 180.736h51.2q0-84.992 59.904-144.896t144.896-59.904 144.896 59.904 59.904 144.896h51.2z" />
<glyph unicode="&#x57;" glyph-name="W" d="M819.2 550.4q0-169.984-119.808-289.792t-289.792-119.808-289.792 119.808-119.808 289.792 119.808 289.792 289.792 119.808 289.792-119.808 119.808-289.792zM768 550.4q0 148.48-104.96 253.44t-253.44 104.96-253.44-104.96-104.96-253.44q0-146.432 102.4-250.88 2.048 104.448 76.8 177.664t179.2 73.216 179.2-73.216 76.8-177.664q102.4 104.448 102.4 250.88zM660.48 294.4h-46.080q0 84.992-59.904 144.896t-144.896 59.904-144.896-59.904-59.904-144.896h-46.080q104.448-102.4 250.88-102.4t250.88 102.4zM614.4 627.2q0-31.744-22.528-54.272t-54.272-22.528-54.272 22.528-22.528 54.272q0 32.768 23.552 55.296l-14.336 15.36 108.544 108.544 35.84-35.84-66.56-67.584q27.648-3.072 47.104-25.088t19.456-50.688zM358.4 627.2q0-31.744-22.528-54.272t-54.272-22.528-54.272 22.528-22.528 54.272q0 30.72 22.016 53.248t52.736 23.552l-65.536 66.56 35.84 35.84 108.544-108.544-19.456-19.456q19.456-22.528 19.456-51.2z" />
<glyph unicode="&#x58;" glyph-name="X" d="M819.2 550.4q0-169.984-119.808-289.792t-289.792-119.808-289.792 119.808-119.808 289.792 119.808 289.792 289.792 119.808 289.792-119.808 119.808-289.792zM768 550.4q0 148.48-104.96 253.44t-253.44 104.96-253.44-104.96-104.96-253.44 104.96-253.44 253.44-104.96 253.44 104.96 104.96 253.44zM614.4 627.2q0-31.744-22.528-54.272t-54.272-22.528-54.272 22.528-22.528 54.272q0 32.768 23.552 55.296l-14.336 15.36 108.544 108.544 35.84-35.84-66.56-67.584q27.648-3.072 47.104-25.088t19.456-50.688zM358.4 627.2q0-31.744-22.528-54.272t-54.272-22.528-54.272 22.528-22.528 54.272q0 30.72 22.016 53.248t52.736 23.552l-65.536 66.56 35.84 35.84 108.544-108.544-19.456-19.456q19.456-22.528 19.456-51.2zM665.6 396.8h-512v51.2h512v-51.2z" />
<glyph unicode="&#x59;" glyph-name="Y" d="M819.2 550.4q0-169.984-119.808-289.792t-289.792-119.808-289.792 119.808-119.808 289.792 119.808 289.792 289.792 119.808 289.792-119.808 119.808-289.792zM768 550.4q0 148.48-104.96 253.44t-253.44 104.96-253.44-104.96-104.96-253.44 104.96-253.44 253.44-104.96 253.44 104.96 104.96 253.44zM614.4 644.608q0-31.744-22.528-54.272t-54.272-22.528-54.272 22.528-22.528 54.272q0 28.672 19.456 51.2l-10.24 10.24 108.544 108.544 35.84-35.84-59.392-59.392q25.6-6.144 42.496-27.136t16.896-47.616zM358.4 644.608q0-31.744-22.528-54.272t-54.272-22.528-54.272 22.528-22.528 54.272q0 26.624 16.896 47.616t42.496 27.136l-50.176 51.2 35.84 35.84 108.544-108.544-12.288-12.288q12.288-18.432 12.288-40.96zM665.6 499.2q0-105.472-75.264-180.736t-180.736-75.264-180.736 75.264-75.264 180.736h512zM608.256 448h-397.312q17.408-67.584 73.216-110.592t125.44-43.008 125.44 43.008 73.216 110.592z" />
<glyph unicode="&#x5a;" glyph-name="Z" d="M819.2 550.4q0-169.984-119.808-289.792t-289.792-119.808-289.792 119.808-119.808 289.792 119.808 289.792 289.792 119.808 289.792-119.808 119.808-289.792zM768 550.4q0 148.48-104.96 253.44t-253.44 104.96-253.44-104.96-104.96-253.44 104.96-253.44 253.44-104.96 253.44 104.96 104.96 253.44zM614.4 601.6h-153.6v51.2h153.6v-51.2zM358.4 601.6h-153.6v51.2h153.6v-51.2zM614.4 396.8q0-53.248-24.576-99.328-28.672-54.272-77.824-54.272t-77.824 54.272q-24.576 46.080-24.576 99.328h-204.8v51.2h409.6v-51.2zM563.2 396.8h-102.4q0-28.672 12.288-61.44 16.384-40.96 38.912-40.96t38.912 40.96q12.288 32.768 12.288 61.44z" />
<glyph unicode="&#x5b;" glyph-name="bracketleft" d="M819.2 550.4q0-169.984-119.808-289.792t-289.792-119.808-289.792 119.808-119.808 289.792 119.808 289.792 289.792 119.808 289.792-119.808 119.808-289.792zM768 550.4q0 148.48-104.96 253.44t-253.44 104.96-253.44-104.96-104.96-253.44 104.96-253.44 253.44-104.96 253.44 104.96 104.96 253.44zM614.4 627.2q0-31.744-22.528-54.272t-54.272-22.528-54.272 22.528-22.528 54.272q0 32.768 23.552 55.296l-14.336 15.36 108.544 108.544 35.84-35.84-66.56-67.584q27.648-3.072 47.104-25.088t19.456-50.688zM358.4 627.2q0-31.744-22.528-54.272t-54.272-22.528-54.272 22.528-22.528 54.272q0 30.72 22.016 53.248t52.736 23.552l-65.536 66.56 35.84 35.84 108.544-108.544-19.456-19.456q19.456-22.528 19.456-51.2zM665.6 448h-51.2l-51.2-102.4-51.2 102.4h-204.8l-51.2-102.4-51.2 102.4h-51.2v51.2h512v-51.2z" />
<glyph unicode="&#x5d;" glyph-name="bracketright" horiz-adv-x="888" d="M815.104 548.352q0-168.96-119.296-288.256t-288.256-119.296-288.256 119.296-119.296 288.256q0 154.624 102.4 269.312v240.64l167.936-125.952q66.56 23.552 137.216 23.552 66.56 0 130.048-20.48l184.32 122.88-13.312-234.496q106.496-116.736 106.496-275.456zM764.928 548.352q0 147.456-104.96 252.416t-252.416 104.96-251.904-104.96-104.448-252.416 104.448-251.904 251.904-104.448 252.416 104.448 104.96 251.904zM611.328 633.344q0-30.72-22.528-53.248t-53.248-22.528q-31.744 0-54.272 22.528t-22.528 53.248q0 29.696 19.456 51.2l-10.24 11.264 107.52 107.52 35.84-35.84-58.368-59.392q25.6-6.144 41.984-27.136t16.384-47.616zM356.352 633.344q0-30.72-22.528-53.248t-53.248-22.528q-31.744 0-54.272 22.528t-22.528 53.248q0 26.624 16.896 47.616t42.496 27.136l-50.176 51.2 35.84 35.84 107.52-108.544-11.264-11.264q11.264-19.456 11.264-41.984zM662.528 488.96q0-104.448-74.752-179.2t-180.224-74.752-180.224 74.752-74.752 179.2h509.952zM605.184 438.784h-44.032l-51.2-102.4-51.2 102.4h-102.4l-50.176-102.4-51.2 102.4h-45.056q17.408-67.584 72.704-110.592t124.928-43.008 124.928 43.008 72.704 110.592z" />
<glyph unicode="&#x5e;" glyph-name="asciicircum" d="M819.2 550.4q0-169.984-119.808-289.792t-289.792-119.808-289.792 119.808-119.808 289.792 119.808 289.792 289.792 119.808 289.792-119.808 119.808-289.792zM768 550.4q0 148.48-104.96 253.44t-253.44 104.96-253.44-104.96-104.96-253.44 104.96-253.44 253.44-104.96 253.44 104.96 104.96 253.44zM665.6 601.6h-51.2q0 28.672-12.288 61.44-15.36 40.96-38.912 40.96t-38.912-40.96q-12.288-32.768-12.288-61.44h-51.2q0 53.248 24.576 99.328 28.672 54.272 77.824 54.272t77.824-54.272q24.576-46.080 24.576-99.328zM358.4 601.6h-51.2q0 28.672-12.288 61.44-15.36 40.96-38.912 40.96t-38.912-40.96q-12.288-32.768-12.288-61.44h-51.2q0 53.248 24.576 99.328 28.672 54.272 77.824 54.272t77.824-54.272q24.576-46.080 24.576-99.328zM563.2 396.8h-307.2v51.2h307.2v-51.2z" />
<glyph unicode="&#x61;" glyph-name="a" d="M819.2 550.4q0-169.984-119.808-289.792t-289.792-119.808-289.792 119.808-119.808 289.792 119.808 289.792 289.792 119.808 289.792-119.808 119.808-289.792zM768 550.4q0 148.48-104.96 253.44t-253.44 104.96-253.44-104.96-104.96-253.44 104.96-253.44 253.44-104.96 253.44 104.96 104.96 253.44zM614.4 601.6h-153.6v51.2h153.6v-51.2zM358.4 601.6h-153.6v51.2h153.6v-51.2zM563.2 396.8h-51.2q0-53.248-24.576-99.328-28.672-54.272-77.824-54.272t-77.824 54.272q-24.576 46.080-24.576 99.328h-51.2v51.2h307.2v-51.2zM460.8 396.8h-102.4q0-28.672 12.288-61.44 16.384-40.96 38.912-40.96t38.912 40.96q12.288 32.768 12.288 61.44z" />
<glyph unicode="&#x62;" glyph-name="b" d="M819.2 550.4q0-169.984-119.808-289.792t-289.792-119.808-289.792 119.808-119.808 289.792 119.808 289.792 289.792 119.808 289.792-119.808 119.808-289.792zM768 550.4q0 148.48-104.96 253.44t-253.44 104.96-253.44-104.96-104.96-253.44 104.96-253.44 253.44-104.96 253.44 104.96 104.96 253.44zM614.4 601.6h-153.6v51.2h153.6v-51.2zM358.4 601.6h-153.6v51.2h153.6v-51.2zM512 396.8h-204.8v51.2h204.8v-51.2z" />
<glyph unicode="&#x63;" glyph-name="c" d="M819.2 550.4q0-169.984-119.808-289.792t-289.792-119.808-289.792 119.808-119.808 289.792 119.808 289.792 289.792 119.808 289.792-119.808 119.808-289.792zM768 550.4q0 148.48-104.96 253.44t-253.44 104.96-253.44-104.96-104.96-253.44 104.96-253.44 253.44-104.96 253.44 104.96 104.96 253.44zM614.4 739.84l-35.84-35.84-108.544 108.544 35.84 35.84zM614.4 627.2q0-31.744-22.528-54.272t-54.272-22.528-54.272 22.528-22.528 54.272 22.528 54.272 54.272 22.528 54.272-22.528 22.528-54.272zM358.4 812.544l-108.544-108.544-35.84 35.84 108.544 108.544zM358.4 627.2q0-31.744-22.528-54.272t-54.272-22.528-54.272 22.528-22.528 54.272 22.528 54.272 54.272 22.528 54.272-22.528 22.528-54.272zM665.6 550.4q0-105.472-75.264-180.736t-180.736-75.264-180.736 75.264-75.264 180.736h51.2q0-84.992 59.904-144.896t144.896-59.904 144.896 59.904 59.904 144.896h51.2z" />
<glyph unicode="&#x64;" glyph-name="d" d="M819.2 550.4q0-169.984-119.808-289.792t-289.792-119.808-289.792 119.808-119.808 289.792 119.808 289.792 289.792 119.808 289.792-119.808 119.808-289.792zM768 550.4q0 118.784-71.168 214.016t-184.832 129.024l93.184-93.184-35.84-35.84-108.544 108.544 27.648 26.624q-38.912 9.216-78.848 9.216-43.008 0-86.016-10.24l25.6-25.6-108.544-108.544-35.84 35.84 89.088 89.088q-108.544-36.864-175.616-130.56t-67.072-208.384q0-146.432 102.4-250.88 2.048 104.448 76.8 177.664t179.2 73.216 179.2-73.216 76.8-177.664q102.4 104.448 102.4 250.88zM660.48 294.4h-46.080q0 84.992-59.904 144.896t-144.896 59.904-144.896-59.904-59.904-144.896h-46.080q104.448-102.4 250.88-102.4t250.88 102.4zM614.4 627.2q0-31.744-22.528-54.272t-54.272-22.528-54.272 22.528-22.528 54.272 22.528 54.272 54.272 22.528 54.272-22.528 22.528-54.272zM358.4 627.2q0-31.744-22.528-54.272t-54.272-22.528-54.272 22.528-22.528 54.272 22.528 54.272 54.272 22.528 54.272-22.528 22.528-54.272z" />
<glyph unicode="&#x65;" glyph-name="e" d="M819.2 550.4q0-169.984-119.808-289.792t-289.792-119.808-289.792 119.808-119.808 289.792 119.808 289.792 289.792 119.808 289.792-119.808 119.808-289.792zM768 550.4q0 148.48-104.96 253.44t-253.44 104.96-253.44-104.96-104.96-253.44 104.96-253.44 253.44-104.96 253.44 104.96 104.96 253.44zM614.4 739.84l-35.84-35.84-108.544 108.544 35.84 35.84zM614.4 627.2q0-31.744-22.528-54.272t-54.272-22.528-54.272 22.528-22.528 54.272 22.528 54.272 54.272 22.528 54.272-22.528 22.528-54.272zM358.4 812.544l-108.544-108.544-35.84 35.84 108.544 108.544zM358.4 627.2q0-31.744-22.528-54.272t-54.272-22.528-54.272 22.528-22.528 54.272 22.528 54.272 54.272 22.528 54.272-22.528 22.528-54.272zM614.4 396.8h-409.6v51.2h409.6v-51.2z" />
<glyph unicode="&#x66;" glyph-name="f" d="M819.2 550.4q0-169.984-119.808-289.792t-289.792-119.808-289.792 119.808-119.808 289.792 119.808 289.792 289.792 119.808 289.792-119.808 119.808-289.792zM768 550.4q0 148.48-104.96 253.44t-253.44 104.96-253.44-104.96-104.96-253.44 104.96-253.44 253.44-104.96 253.44 104.96 104.96 253.44zM608.256 749.056l-35.84-35.84-108.544 108.544 35.84 35.84zM608.256 636.416q0-31.744-22.528-54.272t-54.272-22.528q-30.72 0-53.76 22.528t-23.040 54.272q0 30.72 23.040 53.76t53.76 23.040q31.744 0 54.272-23.040t22.528-53.76zM352.256 821.76l-108.544-108.544-35.84 35.84 108.544 108.544zM352.256 636.416q0-31.744-22.528-54.272t-54.272-22.528q-30.72 0-53.76 22.528t-23.040 54.272q0 30.72 23.040 53.76t53.76 23.040q31.744 0 54.272-23.040t22.528-53.76zM665.6 499.2q0-105.472-75.264-180.736t-180.736-75.264-180.736 75.264-75.264 180.736h512zM608.256 448h-397.312q17.408-67.584 73.216-110.592t125.44-43.008 125.44 43.008 73.216 110.592z" />
<glyph unicode="&#x67;" glyph-name="g" d="M819.2 550.4q0-169.984-119.808-289.792t-289.792-119.808-289.792 119.808-119.808 289.792 119.808 289.792 289.792 119.808 289.792-119.808 119.808-289.792zM768 550.4q0 148.48-104.96 253.44t-253.44 104.96-253.44-104.96-104.96-253.44 104.96-253.44 253.44-104.96 253.44 104.96 104.96 253.44zM665.6 652.8q0-41.984-30.208-72.192t-72.192-30.208-72.192 30.208-30.208 72.192 30.208 72.192 72.192 30.208 72.192-30.208 30.208-72.192zM358.4 652.8q0-41.984-30.208-72.192t-72.192-30.208-72.192 30.208-30.208 72.192 30.208 72.192 72.192 30.208 72.192-30.208 30.208-72.192zM665.6 499.2q0-105.472-75.264-180.736t-180.736-75.264-180.736 75.264-75.264 180.736h512zM614.4 652.8q0 21.504-14.848 36.352t-36.352 14.848-36.352-14.848-14.848-36.352 14.848-36.352 36.352-14.848 36.352 14.848 14.848 36.352zM307.2 652.8q0 21.504-14.848 36.352t-36.352 14.848-36.352-14.848-14.848-36.352 14.848-36.352 36.352-14.848 36.352 14.848 14.848 36.352zM608.256 448h-397.312q17.408-67.584 73.216-110.592t125.44-43.008 125.44 43.008 73.216 110.592z" />
<glyph unicode="&#x68;" glyph-name="h" horiz-adv-x="882" d="M815.104 548.352q0-168.96-119.296-288.256t-288.256-119.296-288.256 119.296-119.296 288.256q0 118.784 64 219.136t171.52 150.528l-31.744 31.744 108.544 108.544 35.84-35.84-97.28-97.28q74.752 30.72 156.672 30.72 73.728 0 142.336-25.6l-91.136 92.16 35.84 35.84 108.544-108.544-29.696-28.672q110.592-49.152 176.128-150.528t65.536-222.208zM764.928 548.352q0 147.456-104.96 252.416t-252.416 104.96-251.904-104.96-104.448-252.416 104.448-251.904 251.904-104.448 252.416 104.448 104.96 251.904zM611.328 625.152q0-31.744-22.528-54.272t-53.248-22.528q-31.744 0-54.272 22.528t-22.528 54.272 22.528 54.272 54.272 22.528q30.72 0 53.248-22.528t22.528-54.272zM356.352 625.152q0-31.744-22.528-54.272t-53.248-22.528q-31.744 0-54.272 22.528t-22.528 54.272 22.528 54.272 54.272 22.528q30.72 0 53.248-22.528t22.528-54.272zM458.752 395.776q0-21.504-14.848-36.352t-36.352-14.848q-20.48 0-35.84 14.848t-15.36 36.352q0 20.48 15.36 35.84t35.84 15.36q21.504 0 36.352-15.36t14.848-35.84z" />
<glyph unicode="&#x69;" glyph-name="i" d="M819.2 550.4q0-169.984-119.808-289.792t-289.792-119.808-289.792 119.808-119.808 289.792 119.808 289.792 289.792 119.808 289.792-119.808 119.808-289.792zM768 550.4q0 148.48-104.96 253.44t-253.44 104.96-253.44-104.96-104.96-253.44 104.96-253.44 253.44-104.96q101.376 0 187.392 52.224-59.392 8.192-109.568 57.344l7.168 7.168q-40.96-14.336-84.992-14.336-105.472 0-180.736 75.264t-75.264 180.736h51.2q0-84.992 59.904-144.896t144.896-59.904 144.896 59.904 59.904 144.896h51.2q0-59.392-25.6-111.616 48.128-52.224 50.176-110.592 77.824 97.28 77.824 222.208zM640 322.048q0 31.744-28.672 70.656-31.744-39.936-75.776-65.536 40.96-32.768 76.8-32.768 27.648 0 27.648 27.648zM628.736 699.904q0-43.008-46.080-98.304-41.984-50.176-84.992-71.68-9.216 18.432-27.648 56.32-3.072 7.168-36.864 51.2-23.552 30.72-23.552 58.368 0 25.6 16.384 42.496t41.984 16.896q41.984 0 51.2-35.84 17.408 35.84 51.2 35.84 23.552 0 40.96-16.384t17.408-38.912zM409.6 693.76q0-15.36-46.592-62.464t-42.496-80.896q-67.584 44.032-80.896 56.32-43.008 38.912-43.008 82.944 0 26.624 15.872 45.056t41.472 18.432q41.984 0 51.2-38.912 17.408 38.912 51.2 38.912 53.248 0 53.248-59.392z" />
<glyph unicode="&#x6a;" glyph-name="j" d="M819.2 550.4q0-169.984-119.808-289.792t-289.792-119.808-289.792 119.808-119.808 289.792 119.808 289.792 289.792 119.808 289.792-119.808 119.808-289.792zM768 550.4q0 148.48-104.96 253.44t-253.44 104.96-253.44-104.96-104.96-253.44 104.96-253.44 253.44-104.96 253.44 104.96 104.96 253.44zM665.6 601.6h-51.2q0 28.672-12.288 61.44-15.36 40.96-38.912 40.96t-38.912-40.96q-12.288-32.768-12.288-61.44h-51.2q0 53.248 24.576 99.328 28.672 54.272 77.824 54.272t77.824-54.272q24.576-46.080 24.576-99.328zM358.4 601.6h-51.2q0 28.672-12.288 61.44-15.36 40.96-38.912 40.96t-38.912-40.96q-12.288-32.768-12.288-61.44h-51.2q0 53.248 24.576 99.328 28.672 54.272 77.824 54.272t77.824-54.272q24.576-46.080 24.576-99.328zM665.6 550.4q0-105.472-75.264-180.736t-180.736-75.264-180.736 75.264-75.264 180.736h51.2q0-84.992 59.904-144.896t144.896-59.904 144.896 59.904 59.904 144.896h51.2z" />
<glyph unicode="&#x6b;" glyph-name="k" d="M819.2 550.4q0-169.984-119.808-289.792t-289.792-119.808-289.792 119.808-119.808 289.792 119.808 289.792 289.792 119.808 289.792-119.808 119.808-289.792zM768 550.4q0 148.48-104.96 253.44t-253.44 104.96-253.44-104.96-104.96-253.44q0-146.432 102.4-250.88 2.048 104.448 76.8 177.664t179.2 73.216 179.2-73.216 76.8-177.664q102.4 104.448 102.4 250.88zM660.48 294.4h-46.080q0 84.992-59.904 144.896t-144.896 59.904-144.896-59.904-59.904-144.896h-46.080q104.448-102.4 250.88-102.4t250.88 102.4zM665.6 601.6h-51.2q0 28.672-12.288 61.44-15.36 40.96-38.912 40.96t-38.912-40.96q-12.288-32.768-12.288-61.44h-51.2q0 53.248 24.576 99.328 28.672 54.272 77.824 54.272t77.824-54.272q24.576-46.080 24.576-99.328zM358.4 601.6h-51.2q0 28.672-12.288 61.44-15.36 40.96-38.912 40.96t-38.912-40.96q-12.288-32.768-12.288-61.44h-51.2q0 53.248 24.576 99.328 28.672 54.272 77.824 54.272t77.824-54.272q24.576-46.080 24.576-99.328z" />
<glyph unicode="&#x6c;" glyph-name="l" d="M819.2 550.4q0-169.984-119.808-289.792t-289.792-119.808-289.792 119.808-119.808 289.792 119.808 289.792 289.792 119.808 289.792-119.808 119.808-289.792zM768 550.4q0 148.48-104.96 253.44t-253.44 104.96-253.44-104.96-104.96-253.44 104.96-253.44 253.44-104.96 253.44 104.96 104.96 253.44zM665.6 601.6h-51.2q0 28.672-12.288 61.44-15.36 40.96-38.912 40.96t-38.912-40.96q-12.288-32.768-12.288-61.44h-51.2q0 53.248 24.576 99.328 28.672 54.272 77.824 54.272t77.824-54.272q24.576-46.080 24.576-99.328zM358.4 601.6h-51.2q0 28.672-12.288 61.44-15.36 40.96-38.912 40.96t-38.912-40.96q-12.288-32.768-12.288-61.44h-51.2q0 53.248 24.576 99.328 28.672 54.272 77.824 54.272t77.824-54.272q24.576-46.080 24.576-99.328zM563.2 396.8h-307.2v51.2h307.2v-51.2z" />
<glyph unicode="&#x6d;" glyph-name="m" d="M819.2 550.4q0-169.984-119.808-289.792t-289.792-119.808-289.792 119.808-119.808 289.792 119.808 289.792 289.792 119.808 289.792-119.808 119.808-289.792zM768 550.4q0 148.48-104.96 253.44t-253.44 104.96-253.44-104.96-104.96-253.44 104.96-253.44 253.44-104.96 253.44 104.96 104.96 253.44zM665.6 592.384h-51.2q0 28.672-12.288 61.44-15.36 40.96-38.912 40.96t-38.912-40.96q-12.288-32.768-12.288-61.44h-51.2q0 53.248 24.576 99.328 28.672 54.272 77.824 54.272t77.824-54.272q24.576-46.080 24.576-99.328zM358.4 592.384h-51.2q0 28.672-12.288 61.44-15.36 40.96-38.912 40.96t-38.912-40.96q-12.288-32.768-12.288-61.44h-51.2q0 53.248 24.576 99.328 28.672 54.272 77.824 54.272t77.824-54.272q24.576-46.080 24.576-99.328zM665.6 499.2q0-105.472-75.264-180.736t-180.736-75.264-180.736 75.264-75.264 180.736h512zM608.256 448h-397.312q17.408-67.584 73.216-110.592t125.44-43.008 125.44 43.008 73.216 110.592z" />
<glyph unicode="&#x6e;" glyph-name="n" d="M819.2 550.4q0-169.984-119.808-289.792t-289.792-119.808-289.792 119.808-119.808 289.792 119.808 289.792 289.792 119.808 289.792-119.808 119.808-289.792zM768 550.4q0 148.48-104.96 253.44t-253.44 104.96-253.44-104.96-104.96-253.44q0-146.432 102.4-250.88 2.048 104.448 76.8 177.664t179.2 73.216 179.2-73.216 76.8-177.664q102.4 104.448 102.4 250.88zM608.256 345.6q-17.408 67.584-73.216 110.592t-125.44 43.008-125.44-43.008-73.216-110.592h397.312zM660.48 294.4h-501.76q104.448-102.4 250.88-102.4t250.88 102.4zM665.6 601.6h-51.2q0 28.672-12.288 61.44-15.36 40.96-38.912 40.96t-38.912-40.96q-12.288-32.768-12.288-61.44h-51.2q0 53.248 24.576 99.328 28.672 54.272 77.824 54.272t77.824-54.272q24.576-46.080 24.576-99.328zM358.4 601.6h-51.2q0 28.672-12.288 61.44-15.36 40.96-38.912 40.96t-38.912-40.96q-12.288-32.768-12.288-61.44h-51.2q0 53.248 24.576 99.328 28.672 54.272 77.824 54.272t77.824-54.272q24.576-46.080 24.576-99.328z" />
<glyph unicode="&#x6f;" glyph-name="o" d="M819.2 550.4q0-169.984-119.808-289.792t-289.792-119.808-289.792 119.808-119.808 289.792 119.808 289.792 289.792 119.808 289.792-119.808 119.808-289.792zM768 550.4q0 148.48-104.96 253.44t-253.44 104.96-253.44-104.96-104.96-253.44 104.96-253.44 253.44-104.96 253.44 104.96 104.96 253.44zM614.4 739.84l-35.84-35.84-108.544 108.544 35.84 35.84zM614.4 627.2q0-31.744-22.528-54.272t-54.272-22.528-54.272 22.528-22.528 54.272 22.528 54.272 54.272 22.528 54.272-22.528 22.528-54.272zM358.4 812.544l-108.544-108.544-35.84 35.84 108.544 108.544zM358.4 627.2q0-31.744-22.528-54.272t-54.272-22.528-54.272 22.528-22.528 54.272 22.528 54.272 54.272 22.528 54.272-22.528 22.528-54.272zM512 396.8q0-41.984-30.208-72.192t-72.192-30.208-72.192 30.208-30.208 72.192 30.208 72.192 72.192 30.208 72.192-30.208 30.208-72.192z" />
<glyph unicode="&#x70;" glyph-name="p" horiz-adv-x="881" d="M815.104 548.352q0-168.96-119.296-288.256t-288.256-119.296-288.256 119.296-119.296 288.256q0 118.784 64 219.136t171.52 150.528l-31.744 31.744 108.544 108.544 35.84-35.84-97.28-97.28q74.752 30.72 156.672 30.72 73.728 0 142.336-25.6l-91.136 92.16 35.84 35.84 108.544-108.544-29.696-28.672q110.592-49.152 176.128-150.528t65.536-222.208zM764.928 548.352q0 147.456-104.96 252.416t-252.416 104.96-251.904-104.96-104.448-252.416 104.448-251.904 251.904-104.448q101.376 0 187.392 53.248l-10.24-1.024q-59.392-3.072-119.808 56.32-28.672-7.168-57.344-7.168-105.472 0-180.224 74.752t-74.752 180.224h51.2q0-83.968 59.904-143.872t143.872-59.904 143.872 59.904 59.904 143.872h51.2q0-67.584-33.792-126.976 35.84-48.128 35.84-97.28 0-14.336-3.072-26.624 103.424 104.448 103.424 250.88zM614.4 323.072q0 22.528-18.432 54.272-31.744-35.84-74.752-57.344 36.864-24.576 65.536-24.576 27.648 0 27.648 27.648zM561.152 633.344q0-30.72-22.528-53.248t-54.272-22.528-54.272 22.528-22.528 53.248q0-30.72-22.528-53.248t-53.248-22.528q-31.744 0-54.272 22.528t-22.528 53.248q0 31.744 22.528 54.272t54.272 22.528q30.72 0 53.248-22.528t22.528-54.272q0 31.744 22.528 54.272t54.272 22.528 54.272-22.528 22.528-54.272z" />
<glyph unicode="&#x71;" glyph-name="q" d="M819.2 550.4q0-169.984-119.808-289.792t-289.792-119.808-289.792 119.808-119.808 289.792 119.808 289.792 289.792 119.808 289.792-119.808 119.808-289.792zM768 550.4q0 148.48-104.96 253.44t-253.44 104.96-253.44-104.96-104.96-253.44 104.96-253.44 253.44-104.96 253.44 104.96 104.96 253.44zM665.6 550.4q0-105.472-75.264-180.736t-180.736-75.264-180.736 75.264-75.264 180.736h25.6q-25.6 33.792-25.6 76.8 0 53.248 37.376 90.624t90.624 37.376 90.624-37.376 37.376-90.624q0 53.248 37.376 90.624t90.624 37.376 90.624-37.376 37.376-90.624q0-43.008-25.6-76.8h25.6zM601.088 627.2q0 26.624-18.432 45.056t-45.056 18.432-45.568-18.432-18.944-45.056 18.944-45.568 45.568-18.944 45.056 18.944 18.432 45.568zM345.088 627.2q0 26.624-18.432 45.056t-45.056 18.432-45.568-18.432-18.944-45.056 18.944-45.568 45.568-18.944 45.056 18.944 18.432 45.568zM612.352 523.776q-33.792-24.576-74.752-24.576-53.248 0-90.624 37.376t-37.376 90.624q0-53.248-37.376-90.624t-90.624-37.376q-40.96 0-74.752 24.576 10.24-76.8 68.096-127.488t134.656-50.688 134.656 50.688 68.096 127.488z" />
<glyph unicode="&#x73;" glyph-name="s" d="M819.2 550.4q0-169.984-119.808-289.792t-289.792-119.808-289.792 119.808-119.808 289.792 119.808 289.792 289.792 119.808 289.792-119.808 119.808-289.792zM768 550.4q0 148.48-104.96 253.44t-253.44 104.96-253.44-104.96-104.96-253.44 104.96-253.44 253.44-104.96 253.44 104.96 104.96 253.44zM614.4 755.2h-153.6v51.2h153.6v-51.2zM614.4 627.2q0-31.744-22.528-54.272t-54.272-22.528-54.272 22.528-22.528 54.272 22.528 54.272 54.272 22.528 54.272-22.528 22.528-54.272zM358.4 627.2q0-31.744-22.528-54.272t-54.272-22.528-54.272 22.528-22.528 54.272q0 30.72 22.016 53.248t52.736 23.552l-65.536 66.56 35.84 35.84 108.544-108.544-19.456-19.456q19.456-22.528 19.456-51.2zM614.4 396.8h-409.6v51.2h409.6v-51.2z" />
<glyph unicode="&#x75;" glyph-name="u" d="M819.2 550.4q0-169.984-119.808-289.792t-289.792-119.808-289.792 119.808-119.808 289.792 119.808 289.792 289.792 119.808 289.792-119.808 119.808-289.792zM768 550.4q0 148.48-104.96 253.44t-253.44 104.96-253.44-104.96-104.96-253.44 104.96-253.44 253.44-104.96 253.44 104.96 104.96 253.44zM614.4 755.2h-153.6v51.2h153.6v-51.2zM614.4 627.2q0-31.744-22.528-54.272t-54.272-22.528-54.272 22.528-22.528 54.272 22.528 54.272 54.272 22.528 54.272-22.528 22.528-54.272zM358.4 627.2q0-31.744-22.528-54.272t-54.272-22.528-54.272 22.528-22.528 54.272q0 30.72 22.016 53.248t52.736 23.552l-65.536 66.56 35.84 35.84 108.544-108.544-19.456-19.456q19.456-22.528 19.456-51.2zM460.8 345.6q0-21.504-14.848-36.352t-36.352-14.848-36.352 14.848-14.848 36.352 14.848 36.352 36.352 14.848 36.352-14.848 14.848-36.352z" />
<glyph unicode="&#x76;" glyph-name="v" horiz-adv-x="882" d="M815.104 548.352q0-168.96-119.296-288.256t-288.256-119.296-288.256 119.296-119.296 288.256q0 118.784 64 219.136t171.52 150.528l-31.744 31.744 108.544 108.544 35.84-35.84-97.28-97.28q74.752 30.72 156.672 30.72 73.728 0 142.336-25.6l-91.136 92.16 35.84 35.84 108.544-108.544-29.696-28.672q110.592-49.152 176.128-150.528t65.536-222.208zM764.928 548.352q0 147.456-104.96 252.416t-252.416 104.96-251.904-104.96-104.448-252.416 104.448-251.904 251.904-104.448 252.416 104.448 104.96 251.904zM662.528 625.152q0-53.248-37.376-90.624t-89.6-37.376q-53.248 0-90.624 37.376t-37.376 90.624q0-53.248-37.376-90.624t-89.6-37.376q-53.248 0-90.624 37.376t-37.376 90.624q0 52.224 37.376 89.6t90.624 37.376q52.224 0 89.6-37.376t37.376-89.6q0 52.224 37.376 89.6t90.624 37.376q52.224 0 89.6-37.376t37.376-89.6zM458.752 395.776q0-21.504-14.848-36.352t-36.352-14.848q-20.48 0-35.84 14.848t-15.36 36.352q0 20.48 15.36 35.84t35.84 15.36q21.504 0 36.352-15.36t14.848-35.84zM599.040 625.152q0 25.6-18.944 44.544t-44.544 18.944q-26.624 0-45.568-18.944t-18.944-44.544q0-26.624 18.944-45.056t45.568-18.432q25.6 0 44.544 18.432t18.944 45.056zM344.064 625.152q0 25.6-18.944 44.544t-44.544 18.944q-26.624 0-45.056-18.944t-18.432-44.544q0-26.624 18.432-45.056t45.056-18.432q25.6 0 44.544 18.432t18.944 45.056z" />
<glyph unicode="&#x77;" glyph-name="w" horiz-adv-x="882" d="M815.104 548.352q0-168.96-119.296-288.256t-288.256-119.296-288.256 119.296-119.296 288.256q0 118.784 64 219.136t171.52 150.528l-31.744 31.744 108.544 108.544 35.84-35.84-97.28-97.28q74.752 30.72 156.672 30.72 73.728 0 142.336-25.6l-91.136 92.16 35.84 35.84 108.544-108.544-29.696-28.672q110.592-49.152 176.128-150.528t65.536-222.208zM764.928 548.352q0 147.456-104.96 252.416t-252.416 104.96-251.904-104.96-104.448-252.416 104.448-251.904 251.904-104.448q97.28 0 180.224 49.152l-9.216-1.024q-58.368-3.072-119.808 58.368h1.024q-25.6-5.12-52.224-5.12-105.472 0-180.224 74.752t-74.752 180.224h51.2q0-83.968 59.904-143.872t143.872-59.904 143.872 59.904 59.904 143.872h51.2q0-71.68-36.864-132.096 34.816-48.128 34.816-96.256 0-14.336-3.072-26.624 107.52 105.472 107.52 254.976zM610.304 318.976q0 22.528-18.432 53.248-32.768-34.816-76.8-54.272 37.888-26.624 67.584-26.624 27.648 0 27.648 27.648zM662.528 653.824q0-53.248-37.376-90.624t-89.6-37.376q-53.248 0-90.624 37.376t-37.376 90.624q0-53.248-37.376-90.624t-89.6-37.376q-53.248 0-90.624 37.376t-37.376 90.624q0 52.224 37.376 89.6t90.624 37.376q52.224 0 89.6-37.376t37.376-89.6q0 52.224 37.376 89.6t90.624 37.376q52.224 0 89.6-37.376t37.376-89.6zM599.040 653.824q0 25.6-18.944 44.544t-44.544 18.944q-26.624 0-45.568-18.944t-18.944-44.544q0-26.624 18.944-45.568t45.568-18.944q25.6 0 44.544 18.944t18.944 45.568zM344.064 653.824q0 25.6-18.944 44.544t-44.544 18.944q-26.624 0-45.056-18.944t-18.432-44.544q0-26.624 18.432-45.568t45.056-18.944q25.6 0 44.544 18.944t18.944 45.568z" />
<glyph unicode="&#x79;" glyph-name="y" horiz-adv-x="888" d="M815.104 548.352q0-168.96-119.296-288.256t-288.256-119.296-288.256 119.296-119.296 288.256q0 154.624 102.4 269.312v240.64l167.936-125.952q66.56 23.552 137.216 23.552 66.56 0 130.048-20.48l184.32 122.88-13.312-234.496q106.496-116.736 106.496-275.456zM764.928 548.352q0 147.456-104.96 252.416t-252.416 104.96-251.904-104.96-104.448-252.416 104.448-251.904 251.904-104.448 252.416 104.448 104.96 251.904zM611.328 625.152q0-31.744-22.528-54.272t-53.248-22.528q-31.744 0-54.272 22.528t-22.528 54.272q0 32.768 23.552 55.296l-14.336 15.36 107.52 107.52 35.84-35.84-66.56-66.56q28.672-4.096 47.616-25.6t18.944-50.176zM356.352 625.152q0-31.744-22.528-54.272t-53.248-22.528q-31.744 0-54.272 22.528t-22.528 54.272q0 30.72 22.016 53.248t52.736 22.528l-65.536 66.56 35.84 35.84 107.52-107.52-19.456-19.456q19.456-22.528 19.456-51.2zM662.528 548.352q0-105.472-74.752-180.224t-180.224-74.752-180.224 74.752-74.752 180.224h51.2q0-83.968 59.904-143.872t143.872-59.904 143.872 59.904 59.904 143.872h51.2z" />
<glyph unicode="&#x7a;" glyph-name="z" d="M819.2 550.4q0-169.984-119.808-289.792t-289.792-119.808-289.792 119.808-119.808 289.792 119.808 289.792 289.792 119.808 289.792-119.808 119.808-289.792zM768 550.4q0 148.48-104.96 253.44t-253.44 104.96-253.44-104.96-104.96-253.44 104.96-253.44 253.44-104.96 253.44 104.96 104.96 253.44zM614.4 644.608q0-31.744-22.528-54.272t-54.272-22.528-54.272 22.528-22.528 54.272q0 28.672 19.456 51.2l-10.24 10.24 108.544 108.544 35.84-35.84-59.392-59.392q25.6-6.144 42.496-27.136t16.896-47.616zM358.4 644.608q0-31.744-22.528-54.272t-54.272-22.528-54.272 22.528-22.528 54.272q0 26.624 16.896 47.616t42.496 27.136l-50.176 51.2 35.84 35.84 108.544-108.544-12.288-12.288q12.288-18.432 12.288-40.96zM665.6 499.2q0-105.472-75.264-180.736t-180.736-75.264-180.736 75.264-75.264 180.736h512zM608.256 448h-45.056l-51.2-102.4-51.2 102.4h-102.4l-51.2-102.4-51.2 102.4h-45.056q17.408-67.584 73.216-110.592t125.44-43.008 125.44 43.008 73.216 110.592z" />
<glyph unicode="&#x7b;" glyph-name="braceleft" d="M819.2 550.4q0-169.984-119.808-289.792t-289.792-119.808-289.792 119.808-119.808 289.792 119.808 289.792 289.792 119.808 289.792-119.808 119.808-289.792zM768 550.4q0 148.48-104.96 253.44t-253.44 104.96-253.44-104.96-104.96-253.44 104.96-253.44 253.44-104.96 253.44 104.96 104.96 253.44zM614.4 627.2q0-31.744-22.528-54.272t-54.272-22.528-54.272 22.528-22.528 54.272q0 32.768 23.552 55.296l-14.336 15.36 108.544 108.544 35.84-35.84-66.56-67.584q27.648-3.072 47.104-25.088t19.456-50.688zM358.4 627.2q0-31.744-22.528-54.272t-54.272-22.528-54.272 22.528-22.528 54.272q0 30.72 22.016 53.248t52.736 23.552l-65.536 66.56 35.84 35.84 108.544-108.544-19.456-19.456q19.456-22.528 19.456-51.2zM665.6 448h-51.2l-51.2-102.4-51.2 102.4h-204.8l-51.2-102.4-51.2 102.4h-51.2v51.2h512v-51.2z" />
</font>
</defs>
</svg>
